<?xml version="1.0" standalone="no"?>
<!DOCTYPE svg PUBLIC "-//W3C//DTD SVG 1.1//EN" "http://www.w3.org/Graphics/SVG/1.1/DTD/svg11.dtd" >
<svg xmlns="http://www.w3.org/2000/svg">
<defs>
  <font id="flaticon_mycollection" horiz-adv-x="300">
    <font-face font-family="flaticon_mycollection"
      units-per-em="300" ascent="300"
      descent="0" />
    <missing-glyph horiz-adv-x="0" />
    <glyph glyph-name="001-facebook-app-symbol"
      unicode="&#xF101;"
      horiz-adv-x="300" d="M173.2330361804575 0V136.8340649353161H219.1441223676832L226.0321389205809 190.1765513507242H173.2330361804575V224.2279504186568C173.2330361804575 239.6670082957864 177.5027555933711 250.1885405990757 199.6673950457332 250.1885405990757L227.8904724150601 250.2001430974804V297.9115502871619C223.0096880861679 298.5458201999498 206.255680389844 300 186.7557480710846 300C146.0367799199428 300 118.1598437530215 275.1455146674918 118.1598437530215 229.5109546922438V190.1765513507242H72.10952758494V136.8340649353161H118.1598437530215V0H173.2330361804575z" />
    <glyph glyph-name="002-earth-globe"
      unicode="&#xF102;"
      horiz-adv-x="300" d="M251.484375 251.484375C224.4140625 278.61328125 188.3203125 293.5546875 150 293.5546875S75.5859375 278.61328125 48.515625 251.484375S6.4453125 188.3203125 6.4453125 150S21.38671875 75.5859375 48.515625 48.515625S111.6796875 6.4453125 150 6.4453125S224.4140625 21.38671875 251.484375 48.515625S293.5546875 111.6796875 293.5546875 150S278.61328125 224.4140625 251.484375 251.484375zM280.546875 156.4453125H224.8828125C224.35546875 178.59375 221.25 199.921875 215.80078125 218.84765625C226.4062500000001 224.296875 236.30859375 231.15234375 245.390625 239.23828125C265.8984375 217.32421875 278.96484375 188.37890625 280.546875 156.4453125zM156.4453125 143.5546875H212.05078125C211.58203125 123.1640625 208.76953125 103.65234375 203.90625 86.19140625C188.90625 92.2265625 172.91015625 95.7421875 156.4453125 96.50390625V143.5546875zM236.1328125 248.203125C228.6328125 241.58203125 220.4296875 235.95703125 211.7578125 231.26953125C209.53125 237.48046875 207.01171875 243.33984375 204.19921875 248.84765625C198.6328125 259.86328125 192.3046875 268.88671875 185.33203125 275.80078125C204.375 270.46875 221.66015625 260.91796875 236.1328125 248.203125zM156.4453125 278.671875C169.86328125 275.68359375 182.51953125 263.3203125 192.71484375 243.1640625C195.46875 237.71484375 197.9296875 231.9140625 200.09765625 225.76171875C186.328125 220.078125 171.62109375 216.73828125 156.4453125 215.9765625V278.671875zM203.96484375 213.3984375C208.76953125 196.0546875 211.5234375 176.66015625 211.9921875 156.38671875H156.4453125V203.02734375C172.96875 203.7890625 188.96484375 207.36328125 203.96484375 213.3984375zM143.5546875 156.4453125H87.94921875C88.41796875 176.71875 91.171875 196.11328125 95.9765625 213.45703125C110.9765625 207.36328125 127.03125 203.84765625 143.49609375 203.14453125V156.4453125zM143.61328125 278.671875V215.9765625C128.4375 216.73828125 113.671875 220.078125 99.9609375 225.76171875C102.12890625 231.9140625 104.58984375 237.71484375 107.34375 243.1640625C117.5390625 263.3203125 130.1953125 275.68359375 143.61328125 278.671875zM114.7265625 275.80078125C107.75390625 268.88671875 101.42578125 259.8046875 95.859375 248.84765625C93.10546875 243.33984375 90.5859375 237.48046875 88.30078125 231.26953125C79.62890625 235.95703125 71.484375 241.58203125 63.92578125 248.203125C78.3984375 260.91796875 95.68359375 270.46875 114.7265625 275.80078125zM54.66796875 239.23828125C63.75 231.15234375 73.65234375 224.35546875 84.2578125 218.84765625C78.80859375 199.86328125 75.64453125 178.59375 75.17578125 156.4453125H19.51171875C21.09375 188.37890625 34.16015625 217.32421875 54.66796875 239.23828125zM19.51171875 143.5546875H75.17578125C75.703125 121.23046875 78.8671875 99.84375 84.375 80.80078125C73.828125 75.3515625 63.92578125 68.61328125 54.90234375 60.52734375C34.21875 82.5 21.09375 111.50390625 19.51171875 143.5546875zM64.16015625 51.5625C71.66015625 58.125 79.8046875 63.75 88.41796875 68.37890625C90.64453125 62.34375 93.10546875 56.54296875 95.859375 51.15234375C101.42578125 40.13671875 107.75390625 31.11328125 114.7265625 24.140625C95.80078125 29.47265625 78.57421875 38.96484375 64.16015625 51.5625zM143.61328125 21.328125C130.1953125 24.31640625 117.5390625 36.6796875 107.34375 56.8359375C104.6484375 62.16796875 102.24609375 67.8515625 100.078125 73.88671875C113.7890625 79.5703125 128.49609375 82.91015625 143.61328125 83.61328125V21.328125zM96.15234375 86.19140625C91.2890625 103.65234375 88.4765625 123.1640625 88.0078125 143.5546875H143.61328125V96.50390625C127.1484375 95.80078125 111.15234375 92.28515625 96.15234375 86.19140625zM156.50390625 21.328125V83.61328125C171.62109375 82.8515625 186.328125 79.5703125 200.0390625 73.88671875C197.87109375 67.8515625 195.46875 62.16796875 192.7734375 56.8359375C182.5781250000001 36.6796875 169.921875 24.3164062499999 156.5039062500001 21.3281249999999zM185.390625 24.19921875C192.36328125 31.11328125 198.69140625 40.1953125 204.2578125 51.2109375C207.01171875 56.6015625 209.47265625 62.40234375 211.69921875 68.4375C220.3125 63.80859375 228.4570312500001 58.18359375 235.95703125 51.62109375C221.54296875 38.9648437499999 204.31640625 29.47265625 185.390625 24.19921875zM245.2734375 60.52734375C236.2500000000001 68.5546875 226.34765625 75.3515625 215.80078125 80.80078125C221.30859375 99.84375 224.47265625 121.2890625 225 143.5546875H280.6640625C279.0234375 111.50390625 265.8984375 82.5 245.2734375 60.52734375z" />
    <glyph glyph-name="003-search"
      unicode="&#xF103;"
      horiz-adv-x="300" d="M300 13.2407835108176L220.2419445450119 92.9994631777381C239.1593113693962 114.9517484176227 250.6123519057191 143.5094443265377 250.6123519057191 174.6938240471405C250.6117276937867 243.7878428484039 194.4001947541229 300 125.3061759528595 300S0 243.7878428484039 0 174.6938240471405S56.2121571515961 49.387648094281 125.3061759528595 49.387648094281C156.4905556734623 49.387648094281 185.0482515823773 60.8406886306039 207.0005368222619 79.7580554549881L286.7592164891825 -0.0006242119325L300 13.2407835108176zM18.726357973059 174.6938240471405C18.726357973059 233.4621290620592 66.5378709379409 281.273642026941 125.3061759528595 281.273642026941S231.8859939326601 233.4621290620592 231.8859939326601 174.6938240471405S184.0744809677782 68.11400606734 125.3061759528595 68.11400606734S18.726357973059 115.9255190322218 18.726357973059 174.6938240471405z" />
    <glyph glyph-name="004-search-1"
      unicode="&#xF104;"
      horiz-adv-x="300" d="M290.4153354632588 26.7475336165432L219.0148509637328 101.0076185795036C237.3731699610294 122.8311624477759 247.4318014254117 150.2896464557807 247.4318014254117 178.8751184917319C247.4318014254117 245.6623248955518 193.0941263209634 300 126.3069199171436 300S5.1820384088755 245.6623248955518 5.1820384088755 178.8751184917319S59.5197135133238 57.7502369834638 126.3069199171436 57.7502369834638C151.3797703893551 57.7502369834638 175.27296984166 65.3126426289366 195.7009444229892 79.6685742372643L267.6438577397044 4.8449952603307C270.6509145806271 1.7220798370959 274.695432363164 0 279.0295966014816 0C283.1320436751747 0 287.0238387810273 1.5640908612154 289.9782326299898 4.4078924270618C296.2556612716357 10.4483376048871 296.4557806410841 20.4648386757013 290.4153354632588 26.7475336165432zM126.3069199171436 268.4022048239301C175.6732085805568 268.4022048239301 215.8340062493417 228.2414071551452 215.8340062493417 178.8751184917319S175.6732085805568 89.3480321595338 126.3069199171436 89.3480321595338S36.7798335849454 129.5088298283187 36.7798335849454 178.8751184917319S76.9406312537303 268.4022048239301 126.3069199171436 268.4022048239301z" />
    <glyph glyph-name="005-tick"
      unicode="&#xF105;"
      horiz-adv-x="300" d="M295.606640625 255.7640625C289.7490234375 261.622265625 280.2521484375 261.622265625 274.393359375 255.7640625L94.683984375 76.0529296875L25.606640625 145.1302734375C19.7490234375 150.9884765625 10.2521484375 150.987890625 4.393359375 145.1302734375C-1.46484375 139.27265625 -1.46484375 129.77578125 4.393359375 123.917578125L84.07734375 44.234765625C89.933203125 38.3771484375 99.437109375 38.38125 105.290625 44.234765625L295.606640625 234.55078125C301.46484375 240.4083984375 301.4642578125 249.905859375 295.606640625 255.7640625z" />
    <glyph glyph-name="006-location"
      unicode="&#xF106;"
      horiz-adv-x="300" d="M200.08359375 101.7861328125C232.0072265625 151.8796875 227.994140625 145.630078125 228.9140625 146.9361328125C240.53671875 163.3294921875 246.6796875 182.623828125 246.6796875 202.734375C246.6796875 256.06640625 203.4017578125 300 150 300C96.772265625 300 53.3203125 256.153125 53.3203125 202.734375C53.3203125 182.63671875 59.5921875 162.8373046875 71.595703125 146.223046875L99.915234375 101.785546875C69.6369140625 97.1326171875 18.1640625 83.26640625 18.1640625 52.734375C18.1640625 41.6044921875 25.428515625 25.7431640625 60.036328125 13.3833984375C84.2015625 4.753125 116.1509765625 0 150 0C213.2958984375 0 281.8359375 17.8546875 281.8359375 52.734375C281.8359375 83.2716796875 230.4234375 97.1232421875 200.08359375 101.7861328125zM86.2787109375 155.8916015625C86.18203125 156.0427734375 86.08125 156.1904296875 85.97578125 156.3357421875C75.9873046875 170.0771484375 70.8984375 186.3626953125 70.8984375 202.734375C70.8984375 246.690234375 106.292578125 282.421875 150 282.421875C193.6166015625 282.421875 229.1015625 246.6744140625 229.1015625 202.734375C229.1015625 186.336328125 224.1087890625 170.6033203125 214.660546875 157.2240234375C213.8138671875 156.1072265625 218.23125 162.9697265625 150 55.9048828125L86.2787109375 155.8916015625zM150 17.578125C80.862890625 17.578125 35.7421875 37.9001953125 35.7421875 52.734375C35.7421875 62.7046875 58.9265625 79.0986328125 110.3015625 85.4888671875L142.587890625 34.826953125C144.2015625 32.29453125 146.996484375 30.76171875 149.9994140625 30.76171875S155.7978515625 32.2951171875 157.4109375 34.826953125L189.6966796875 85.4888671875C241.0728515625 79.0986328125 264.2578125 62.7046875 264.2578125 52.734375C264.2578125 38.026171875 219.5431640625 17.578125 150 17.578125zM150 246.6796875C125.7685546875 246.6796875 106.0546875 226.9658203125 106.0546875 202.734375S125.7685546875 158.7890625 150 158.7890625C174.2314453125 158.7890625 193.9453125 178.5029296875 193.9453125 202.734375S174.2314453125 246.6796875 150 246.6796875zM150 176.3671875C135.4611328125 176.3671875 123.6328125 188.1955078125 123.6328125 202.734375S135.4611328125 229.1015625 150 229.1015625S176.3671875 217.2732421875 176.3671875 202.734375S164.5388671875 176.3671875 150 176.3671875z" />
    <glyph glyph-name="007-loan"
      unicode="&#xF107;"
      horiz-adv-x="300" d="M291.5431640625 165.5771484375C280.2673828125 176.8529296875 261.92109375 176.85234375 250.6470703125 165.5771484375L200.7474609375 115.6775390625C198.8513671875 120.3720703125 195.759375 124.45546875 191.848828125 127.5544921875C217.5515625 142.19765625 234.9216796875 169.8521484375 234.9216796875 201.48984375C234.9216796875 248.375390625 196.7771484375 286.519921875 149.8916015625 286.519921875S64.8615234375 248.375390625 64.8615234375 201.48984375C64.8615234375 181.94296875 71.4955078125 163.9189453125 82.6248046875 149.5412109375C80.3044921875 149.46796875 77.9765625 149.274609375 75.645703125 148.9412109375C62.1626953125 147.015234375 49.9458984375 140.9068359375 40.3154296875 131.27578125L0 90.9603515625L12.439453125 78.5208984375L52.75546875 118.8369140625C66.7646484375 132.844921875 88.68046875 135.976171875 106.05 126.45C118.2650390625 119.7515625 132.0849609375 116.211328125 146.0162109375 116.211328125H173.9267578125C180.1716796875 116.211328125 185.25234375 111.1306640625 185.25234375 104.88515625C185.25234375 98.640234375 180.1716796875 93.5595703125 173.9267578125 93.5595703125H126.9755859375V75.9673828125H173.9267578125C181.623046875 75.9673828125 188.6203125 78.994921875 193.8076171875 83.9150390625L193.8351562500001 83.8875L263.087109375 153.1388671875C267.5027343750001 157.555078125 274.6880859375001 157.5544921875 279.1037109375 153.1388671875C283.5193359375001 148.72265625 283.5193359375001 141.5373046875 279.0878906250001 137.1052734375L208.1953125 65.8330078125C198.5853515625 56.1720703125 185.2587890625 50.6314453125 171.6322265625 50.6314453125H124.740234375C102.205078125 50.6314453125 81.0181640625 41.855859375 65.08359375 25.920703125L77.523046875 13.48125C90.1353515625 26.09296875 106.904296875 33.0392578125 124.7408203125 33.0392578125H171.6328125C189.90703125 33.0392578125 207.78046875 40.4701171875 220.6681640625 53.426953125L291.54375 124.68046875C302.8189453125001 135.9556640625 302.8189453125001 154.301953125 291.5431640625 165.5771484375zM149.891015625 134.051953125C112.7056640625 134.051953125 82.453125 164.3044921875 82.453125 201.48984375S112.70625 268.9271484375 149.891015625 268.9271484375S217.32890625 238.674609375 217.32890625 201.4892578125S187.0763671875 134.051953125 149.891015625 134.051953125zM149.8904296875 210.2853515625C145.0400390625 210.2853515625 141.0943359375 214.2310546875 141.0943359375 219.0814453125C141.0943359375 221.047265625 141.7265625 222.9041015625 142.9236328125 224.4515625C144.783984375 226.857421875 147.9533203125 228.0650390625 151.1900390625 227.6021484375L169.1712890625 225.0333984375L171.65859375 242.4486328125L158.6865234375 244.301953125V254.2669921875H141.0943359375V243.821484375C136.355859375 242.1896484375 132.12421875 239.24765625 129.0046875 235.21171875C125.4046875 230.5552734375 123.5015625 224.9771484375 123.5015625 219.08203125C123.5021484375 204.5314453125 135.33984375 192.6931640625 149.891015625 192.6931640625C154.74140625 192.6931640625 158.687109375 188.7474609375 158.687109375 183.8970703125C158.687109375 179.4978515625 155.4076171875 175.7484375 151.0611328125 175.1765625C150.62109375 175.1185546875 150.0685546875 175.11796875 149.4181640625 175.1736328125L130.1173828125 176.827734375L128.614453125 159.2994140625L141.09375 158.2294921875V148.7115234375H158.6859375V159.0205078125C169.0107421875 162.6808593750001 176.278125 172.5673828125 176.278125 183.896484375C176.279296875 198.4470703125 164.4416015625 210.2853515625 149.8904296875 210.2853515625z" />
    <glyph glyph-name="008-quote"
      unicode="&#xF108;"
      horiz-adv-x="300" d="M0 128.5712850766908L64.2856425383454 128.5712850766908L21.4282126917269 42.8574298466185L85.7138552300723 42.8574298466185L128.5712850766908 128.5712850766908L128.5712850766908 257.1425701533816L0 257.1425701533816zM171.4287149233093 257.1425701533816L171.4287149233093 128.5712850766908L235.7143574616547 128.5712850766908L192.8569276150362 42.8574298466185L257.1425701533816 42.8574298466185L300 128.5712850766908L300 257.1425701533816z" />
    <glyph glyph-name="009-placeholder"
      unicode="&#xF109;"
      horiz-adv-x="300" d="M150 300C87.95625 300 37.5 249.54375 37.5 187.5C37.5 109.51875 139.05 7.06875 143.3625 2.7375C145.2 0.91875 147.6 0 150 0S154.8 0.91875 156.6375 2.7375C160.95 7.06875 262.5 109.51875 262.5 187.5C262.5 249.54375 212.04375 300 150 300zM150 22.93125C127.6125 46.89375 56.25 127.93125 56.25 187.5C56.25 239.19375 98.30625 281.25 150 281.25S243.75 239.19375 243.75 187.5C243.75 127.9875 172.3875 46.89375 150 22.93125zM150 243.75C118.9875 243.75 93.75 218.5125 93.75 187.5S118.9875 131.25 150 131.25C181.0125 131.25 206.25 156.4875 206.25 187.5C206.25 218.5125 181.0125 243.75 150 243.75zM150 150C129.31875 150 112.5 166.81875 112.5 187.5S129.31875 225 150 225S187.5 208.18125 187.5 187.5S170.68125 150 150 150z" />
    <glyph glyph-name="010-left-arrow"
      unicode="&#xF10A;"
      horiz-adv-x="300" d="M293.1821510950003 156.985131120742H23.2548646605821L79.7763320566631 213.506598516823C82.4499178725374 216.1614346622814 82.4651519797504 220.4808899843558 79.810315834292 223.1538898730296C77.1554796888336 225.8274756889039 72.8360243667592 225.8427097961169 70.1630244780853 223.1878736506585L1.9827776464867 155.0076268190598C-0.6609258821622 152.3481032559975 -0.6609258821622 148.053256876344 1.9827776464867 145.3943192404821L70.1636104052859 77.2134864816829C72.6127861033693 74.3535758160501 76.9170073182307 74.0201832389665 79.7769179838636 76.4699448642504C82.6368286494964 78.9191205623339 82.97022122658 83.2233417771953 80.5204596012961 86.0832524428281C80.2919479931017 86.3498493190549 80.0435148600904 86.5988683792668 79.7769179838636 86.8267940602606L23.2554505877826 143.3482614563415H293.1827370222008C296.9484911398042 143.3482614563415 300.0005859272005 146.4009421709384 300.0005859272005 150.1661103613413S296.9473192854032 156.985131120742 293.1821510950003 156.985131120742z" />
    <glyph glyph-name="011-right-arrow"
      unicode="&#xF10B;"
      horiz-adv-x="300" d="M298.0172223535133 154.8066537892889L298.0172223535133 154.8066537892889L229.8369755219147 222.987486548088C227.3877998238312 225.8473972137209 223.0835786089698 226.1807897908045 220.223667943337 223.7310281655205C217.3637572777042 221.2818524674371 217.0303647006205 216.9776312525756 219.4801263259044 214.1177205869428C219.7086379340988 213.851123710716 219.9570710671102 213.6021046505042 220.223667943337 213.3741789695103L276.7451353394179 156.7841580909711H6.8178489049997C3.0526807145968 156.7841580909711 0 153.7314773763743 0 149.9657232587709S3.0526807145968 143.1478743537711 6.8178489049997 143.1478743537711H276.7451353394179L220.223667943337 86.6264069576902C217.3637572777042 84.1772312596068 217.0303647006205 79.8730100447453 219.4801263259044 77.0130993791125S226.2335232388494 73.8197961363961 229.0934339044822 76.26955776168C229.3600307807089 76.4980693698744 229.6090498409208 76.7465025028857 229.8369755219147 77.0130993791125L298.0178082807138 145.1939321379117C300.6609258821622 147.852283846573 300.6609258821622 152.1471302262265 298.0172223535133 154.8066537892889z" />
    <glyph glyph-name="012-placeholder-1"
      unicode="&#xF10C;"
      horiz-adv-x="300" d="M150 300C91.84453125 300 44.53125 252.68671875 44.53125 194.53125C44.53125 174.882421875 49.9740234375 155.70703125 60.2748046875 139.07109375L143.996484375 4.1548828125C145.6001953125 1.5703125 148.4255859375 0 151.4642578125 0C151.4876953125 0 151.510546875 0 151.533984375 0C154.5990234375 0.0240234375 157.4302734375 1.64296875 159.0046875 4.27265625L240.5923828125 140.49609375C250.3248046875 156.78046875 255.46875 175.4654296875 255.46875 194.53125C255.46875 252.68671875 208.15546875 300 150 300zM225.507421875 149.520703125L151.33125 25.672265625L75.2150390625 148.332421875C66.641015625 162.179296875 61.9921875 178.154296875 61.9921875 194.53125C61.9921875 242.994140625 101.537109375 282.5390625 150 282.5390625S237.94921875 242.994140625 237.94921875 194.53125C237.94921875 178.6400390625 233.6068359375 163.0734375 225.507421875 149.520703125zM150 247.265625C120.922265625 247.265625 97.265625 223.608984375 97.265625 194.53125C97.265625 165.6392578125 120.5373046875 141.796875 150 141.796875C179.8259765625 141.796875 202.734375 165.9568359375 202.734375 194.53125C202.734375 223.608984375 179.077734375 247.265625 150 247.265625zM150 159.2578125C130.5134765625 159.2578125 114.7265625 175.0974609375 114.7265625 194.53125C114.7265625 213.91640625 130.61484375 229.8046875 150 229.8046875S185.21484375 213.91640625 185.21484375 194.53125C185.21484375 175.3810546875 169.7953125 159.2578125 150 159.2578125z" />
    <glyph glyph-name="013-instagram"
      unicode="&#xF10D;"
      horiz-adv-x="300" d="M224.9981689900149 300H75.0018310099851C33.7565000854471 300 0.0036620199702 266.2471619345231 0.0036620199702 225.0018310099851V74.9981689900149C0.0036620199702 33.7638241253875 33.7565000854471 0 75.0018310099851 0H224.9981689900149C266.2434999145529 0 299.9963379800298 33.7638241253875 299.9963379800298 74.9981689900149V225.0018310099851C299.9963379800298 266.2471619345231 266.2434999145529 300 224.9981689900149 300zM274.9957276433682 74.9981689900149C274.9957276433682 47.4363418861844 252.5753765777203 25.0006103366617 224.9981689900149 25.0006103366617H75.0018310099851C47.4363418861844 25.0006103366617 25.0042723566319 47.4363418861844 25.0042723566319 74.9981689900149V225.0018310099851C25.0042723566319 252.570982153756 47.4363418861844 274.9993896633383 75.0018310099851 274.9993896633383H224.9981689900149C252.5753765777203 274.9993896633383 274.9957276433682 252.570982153756 274.9957276433682 225.0018310099851V74.9981689900149zM212.5106808915798 231.2528990991431A18.7495422475037 18.7495422475037 0 0 1 250.0097653865873 231.2528990991431A18.7495422475037 18.7495422475037 0 0 1 212.5106808915798 231.2528990991431M150 225.0018310099851C108.5708356729572 225.0018310099851 75.0018310099851 191.4291643270428 75.0018310099851 150.0036620199702C75.0018310099851 108.5935401967725 108.5708356729572 74.9981689900149 150 74.9981689900149C191.4174458631381 74.9981689900149 224.9981689900149 108.5935401967725 224.9981689900149 150.0036620199702C224.9981689900149 191.4291643270428 191.4174458631381 225.0018310099851 150 225.0018310099851zM150 99.9987793266766C122.3891018285687 99.9987793266766 100.0024413466468 122.3854398085984 100.0024413466468 150.0036620199702S122.3891018285687 200.0012206733234 150 200.0012206733234S199.9975586533532 177.621884231342 199.9975586533532 150.0036620199703S177.6108981714314 99.9987793266766 150 99.9987793266766z" />
    <glyph glyph-name="014-play"
      unicode="&#xF10E;"
      horiz-adv-x="300" d="M277.3491332839585 163.0794903765926L37.3498832816147 298.0790685029109C32.6998978128193 300.6890603466864 27.0299155315139 300.6290605341859 22.4399298752191 297.9590688779098C17.819944312674 295.2590773153834 14.9999531251465 290.3390926903354 14.9999531251465 284.9991093777832V14.9999531251465C14.9999531251465 9.6599698125943 17.819944312674 4.7399851875463 22.4399298752191 2.0399936250199C24.779922562742 0.6899978437567 27.3899144065175 0 29.9999062502929 0C32.5198983753176 0 35.0698904065925 0.6299980312562 37.3498832816147 1.9199940000187L277.3491332839585 136.9195721263371C282.0591185652545 139.5895637826132 284.9991093777832 144.5695482201618 284.9991093777832 149.9995312514649S282.0591185652545 160.4094987203165 277.3491332839585 163.0794903765926z" />
    <glyph glyph-name="015-apple"
      unicode="&#xF10F;"
      horiz-adv-x="300" d="M206.2370728296514 300C190.2434165424812 298.8937564818956 171.5497760755308 288.6563164668957 160.6560899057232 275.325144579231C150.7186481329211 263.2314654406322 142.5436960330311 245.269070689039 145.7311773563827 227.8129229711545C163.2060749644045 227.269176157171 181.2622191666845 237.7503647439566 191.7246578633328 251.3065353132697C201.512100515036 263.9252113757146 208.9183071192942 281.7751067864837 206.2370728296514 300zM269.4429524827003 199.3505897426383C254.0867924602004 218.6067269137095 232.5056689120962 229.7816614355775 212.1245383327832 229.7816614355775C185.218445985668 229.7816614355775 173.837262672289 216.9004869112095 155.1436222053386 216.9004869112095C135.86873514413 216.9004869112095 121.2250709468499 229.7441616553028 97.9564572863831 229.7441616553028C75.1003412089382 229.7441616553028 50.7629838106417 215.7754935029678 35.3318242275924 191.888133467968C13.638201338664 158.2508305615397 17.3506795858618 95.0074511282161 52.5067235934164 41.1390167635737C65.0878998755866 21.8641297023651 81.8878014386634 0.1892567035741 103.8626726796523 0.0017578022004C123.4188080929213 -0.1857410991732 128.9312757933059 12.5454343040959 155.4248705573991 12.6766835350575C181.9184653214922 12.8266826561563 186.9434358783054 -0.1669912090359 206.4620715112997 0.0392575824752C228.4556926424259 0.2080065937114 246.1743388222335 24.2266158596728 258.7555151044037 43.5015029208814C267.774212260475 57.3201719521175 271.1304425950629 64.276381193079 278.1241516162991 79.8762897873646C227.2556996736347 99.24492629926 219.099497463882 171.5820024492044 269.4429524827003 199.3505897426383z" />
    <glyph glyph-name="016-twitter"
      unicode="&#xF110;"
      horiz-adv-x="300" d="M300 243.01875C288.84375 238.125 276.95625 234.88125 264.5625 233.30625C277.3125 240.91875 287.04375 252.88125 291.61875 267.3C279.73125 260.2125 266.60625 255.20625 252.61875 252.4125C241.33125 264.43125 225.24375 271.875 207.69375 271.875C173.64375 271.875 146.23125 244.2375 146.23125 210.35625C146.23125 205.48125 146.64375 200.79375 147.65625 196.33125C96.525 198.825 51.28125 223.33125 20.8875 260.6625C15.58125 251.45625 12.46875 240.91875 12.46875 229.575C12.46875 208.275 23.4375 189.39375 39.7875 178.4625C29.90625 178.65 20.2125 181.51875 12 186.0375C12 185.85 12 185.60625 12 185.3625C12 155.475 33.31875 130.65 61.275 124.93125C56.26875 123.5625 50.8125 122.90625 45.15 122.90625C41.2125 122.90625 37.2375 123.13125 33.50625 123.95625C41.475 99.6 64.0875 81.69375 90.975 81.1125C70.05 64.74375 43.48125 54.88125 14.71875 54.88125C9.675 54.88125 4.8375 55.10625 0 55.725C27.24375 38.15625 59.53125 28.125 94.35 28.125C207.525 28.125 269.4000000000001 121.875 269.4000000000001 203.1375C269.4000000000001 205.85625 269.30625 208.48125 269.175 211.0875C281.38125 219.75 291.6375 230.56875 300 243.01875z" />
    <glyph glyph-name="017-globe"
      unicode="&#xF111;"
      horiz-adv-x="300" d="M149.8263624550785 299.9862341405828C144.4489171900127 299.9862341405828 139.0752262502425 299.6971510928215 133.7284413084241 299.1208621599468C128.8277953558996 298.6202854538667 123.9872186081048 297.7993396558952 119.2117168321003 296.8031920107958C118.2875270884999 296.6098442580723 117.3627116240168 296.4058592503447 116.4385218804164 296.192488429378C88.3017309525349 289.7863580333176 62.6096315129722 275.4004092214572 42.4432731876516 254.7597544671257C40.5679877024989 252.837539915778 38.73212263295 250.8583847641137 36.9369294207702 248.8229147330153C-17.5383306183999 186.2833639588943 -11.0007988369934 91.4240781567097 51.5393776580102 36.9488181175396C111.4133574722545 -15.2043917263013 201.5390647975689 -11.7341437114008 257.2257204654529 44.8679416077273C259.1047602759012 46.790156159075 260.9399996245674 48.7693113107393 262.7320642323343 50.8047813418376C286.7728862627152 78.1825728391251 300.0212745100084 113.3787467645016 300 149.8138480374265C300 232.7525253051954 232.7650397228474 299.9868598614654 149.8263624550785 299.9862341405828zM49.1159606796997 247.2511038759237C49.9068718753063 248.0720496738952 50.7278176732778 248.857955102441 51.5337461700668 249.6538720651084C52.4648188433758 250.569927437235 53.3908857496241 251.4909885764224 54.3419814911763 252.3770093461843C55.1779445903301 253.1579090076693 56.0389365247879 253.9087740667895 56.894922692185 254.6696506600313C57.8610357349196 255.5256368274283 58.8221430105935 256.3816229948253 59.8132848886321 257.2075745598575C60.6842883572115 257.9434223177953 61.580320661095 258.6492354733683 62.4713471979176 259.3600543960021C63.4725006100779 260.1609771257303 64.4736540222381 260.9618998554585 65.5048420367632 261.7327879828219C66.415891641829 262.4185780701517 67.3419585480773 263.0843450892383 68.2730312213863 263.7350948071424C69.3092250029722 264.475948332141 70.3504245516188 265.2368249253828 71.4066414014479 265.9276207797734C72.3527313759394 266.568358963556 73.3088328845524 267.1890740790953 74.2699401602263 267.8047834275739C75.3411743112377 268.4905735149037 76.41741422931 269.1663520681118 77.5036656815039 269.8070902518944C78.481667421008 270.3908878353604 79.465926369338 270.9652996055873 80.4570682473767 271.5290741208101C81.5652199304616 272.159800770471 82.6777516597247 272.7755101189496 83.7959148769312 273.3762021662457C84.7970682890914 273.9099420791037 85.7982217012517 274.4324190160748 86.7993751134119 274.9430072562766C87.9406900032746 275.5186704682687 89.0920164272589 276.0743106120176 90.248348618304 276.619939221645C91.2495020304643 277.0954870924211 92.290701579111 277.5710349631972 93.321889593636 278.0215539986694C94.4982448529243 278.5221307047495 95.689617413395 279.0227074108296 96.8809899738658 279.5232841169097C97.9171837554516 279.9487743170778 98.9483717699767 280.3642529831243 99.9945770856842 280.7647143479884C101.2059727143981 281.2252449175822 102.4323856442944 281.6557408848111 103.6587985741907 282.08623685204C104.7050038898982 282.4516578474785 105.7512092056056 282.817078842917 106.8124318224955 283.1624767701122C108.058867820635 283.5629381349763 109.3153153528962 283.9333648974757 110.5767686522181 284.2987858929141C111.6329855020472 284.6041376836231 112.6791908177546 284.9195010084535 113.7404134346445 285.2048297309192C114.1458805665694 285.309950839196 114.5513476984943 285.3950488792296 114.9568148304192 285.5001699875065C100.1397443304474 271.1129697338809 89.1439512605147 253.2573986280027 82.9649575448381 233.5503194305106C71.0837694260262 236.6839296105722 59.5817681620701 241.1102791340858 48.6654416442276 246.7505271698436C48.8306319572341 246.9257290169717 48.9707934349365 247.1009308640997 49.1159606796997 247.2511038759237zM41.9176676462675 239.1918189080337C53.9421458471948 232.6768130784008 66.6930859928209 227.6022167205134 79.9064338706885 224.0744023844137C73.4289712940116 201.5509534943383 70.0288040179624 178.2547393142517 69.7997901749307 154.8196150982278H9.7806431159231C10.8712746142952 185.7233437689672 22.1724194749368 215.3937765801017 41.9176676462675 239.1918189080337zM41.9176676462675 60.4358771668193C22.1736709167019 84.2345452156339 10.8725260560604 113.9049780267684 9.7806431159231 144.8080809766252H69.7997901749307C70.0288040179624 121.3729567606013 73.4283455731291 98.0767425805147 79.9064338706885 75.5532936904392C66.6937117137035 72.0242279125743 53.9427715680774 66.9502572755696 41.9176676462675 60.4358771668193zM113.7103788322797 14.4028432756905C112.6992138859978 14.6581373957915 111.6530085702903 14.9885180218043 110.6118090216437 15.2938698125132C109.345349955261 15.6642965750125 108.0738851218174 16.0347233375118 106.8224433566171 16.4401904694367C105.766226506788 16.7805826295711 104.7250269581413 17.1460036250097 103.6838274094947 17.5114246204482C102.4524087125376 17.9369148206163 101.2209900155804 18.372416554906 100.0045886198057 18.8379528915605C98.9633890711591 19.2334084893638 97.9372068236948 19.6488871554103 96.9060188091697 20.0693715885176C95.7096404816382 20.5699482945977 94.5132621541067 21.0705250006779 93.3268953606968 21.571101706758C92.3057188802933 22.0216207422301 91.2895481669507 22.4852799162368 90.2783832206688 22.9627049496607C89.1120394955021 23.5133393263489 87.9507015373962 24.0739852371586 86.7743462781079 24.6546542162116C85.7731928659477 25.1552309222918 84.7720394537874 25.6558076283719 83.7708860416271 26.2014362379992C82.639582685886 26.8071340523562 81.5182908642665 27.4278491678955 80.396999042647 28.068587351678C79.3958456304868 28.624227495427 78.4447498889345 29.1948849403584 77.4786368461999 29.7755539194113C76.3773680928236 30.4363151714371 75.2961224076905 31.1170994917061 74.2148767225574 31.8129011131574C73.2637809810052 32.4185989275144 72.312685239453 33.0343082759929 71.3766067990831 33.6650349256539C70.3103784151324 34.3858653824093 69.2541615653034 35.1367304415294 68.2079562495959 35.8875955006497C67.2919008774693 36.5433509856147 66.3758455053426 37.1991064705796 65.4748074343984 37.8899023249702C64.4386136528125 38.6708019864552 63.4224429394699 39.4767304832442 62.411277993188 40.287664747094C61.5252572234262 40.993477902667 60.6442422207251 41.6942852911791 59.7782445192065 42.4201215149953C58.7770911070463 43.2510788470884 57.8109780643116 44.117076548607 56.8398592545161 44.9780684830648C55.9888788541799 45.7339393092459 55.1328926867829 46.4797986013052 54.3019353546899 47.2506867286686C53.3458338460768 48.1417132654913 52.4197669398286 49.0677801717395 51.4886942665196 49.9838355438662C50.6827657697306 50.7797525065336 49.8618199717591 51.5656579350794 49.0709087761525 52.38159796599C48.9257415313893 52.5367767448748 48.7855800536869 52.6969612908205 48.6404128089236 52.8471343026445C59.5561136058835 58.4898852219328 71.0581148698396 62.9181119080941 82.9399287095341 66.0523478090383C89.1201738669759 46.3458943324288 100.115341216026 28.4909489474332 114.9317859951152 14.1024972520424C114.5263188631903 14.2076183603193 114.1158459642046 14.2927164003529 113.7103788322797 14.4028432756905zM144.8212211151598 10.0478259327934C123.401543861991 13.0913323057606 104.6249116169253 35.4470879992992 92.8113013534343 68.4601217652838C109.8909785648883 72.2845277997359 127.3204337497158 74.3362665737819 144.8212211151598 74.5821748806437V10.0478259327934zM144.8212211151598 84.5937090022464C126.2560825284129 84.3496778580323 107.7691590519911 82.1446374677493 89.6676796392511 78.0161310843535C83.3823133735324 99.7330257567573 80.0666184166342 122.2014112091639 79.8113242965333 144.8080809766252H144.8212211151598V84.5937090022464zM144.8212211151598 154.8196150982278H79.8113242965333C80.0659926957516 177.426284865689 83.3816876526498 199.8946703180957 89.6676796392511 221.6115649904995C107.7691590519911 217.4836843279862 126.2567082492955 215.2786439377032 144.8212211151598 215.0339870726066V154.8196150982278zM144.8212211151598 225.0455211942092C127.3198080288332 225.2895523384232 109.8909785648883 227.3412911124692 92.8113013534343 231.1675743095692C104.6249116169253 264.1806080755537 123.401543861991 286.5363637690923 144.8212211151598 289.5798701420595V225.0455211942092zM257.7363087056546 239.1918189080337C277.4803054352202 215.3931508592191 288.7814502958617 185.7227180480846 289.873333235999 154.8196150982278H229.8541861769914C229.6251723339598 178.2547393142516 226.2256307787931 201.5509534943383 219.7475424812336 224.0744023844137C232.9602646382186 227.6040938831613 245.7112047838447 232.678064520166 257.7363087056546 239.1918189080337zM185.903551383156 285.2298585662232C186.9547624659243 284.9695586790615 188.0009677816318 284.6391780530486 189.0421673302784 284.3338262623398C190.3086263966612 283.9633994998404 191.5800912301047 283.5929727373412 192.831532995305 283.1875056054162C193.8877498451341 282.8471134452818 194.9289493937807 282.4816924498433 195.9701489424275 282.1162714544048C197.2015676393846 281.6907812542367 198.4329863363417 281.255279519947 199.6493877321164 280.7897431832925C200.6905872807631 280.3942875854891 201.7167695282273 279.9788089194426 202.7479575427524 279.5583244863353C203.9443358702839 279.0577477802552 205.1407141978154 278.557171074175 206.3270809912253 278.0565943680949C207.3482574716288 277.6060753326228 208.3644281849715 277.1424161586161 209.3755931312534 276.6649911251922C210.54193685642 276.114356748504 211.703274814526 275.5537108376943 212.8796300738143 274.9730418586413C213.8807834859745 274.4724651525612 214.8819368981348 273.9718884464811 215.8830903102951 273.4262598368537C217.0143936660361 272.8205620224968 218.1356854876556 272.1998469069574 219.2569773092751 271.5591087231749C220.2581307214354 271.0034685794259 221.2092264629876 270.4328111344946 222.1753395057223 269.8521421554416C223.2766082590986 269.1913809034158 224.3578539442316 268.5105965831468 225.4390996293647 267.8147949616955C226.390195370917 267.2090971473386 227.3412911124692 266.59338779886 228.2773695528391 265.962661149199C229.3435979367898 265.2418306924436 230.394809019558 264.4959714003842 231.4410143352655 263.745106341264C232.3620754744529 263.089350856299 233.2781308465796 262.4285896042733 234.1841746845846 261.7427995169435C235.2153626991097 260.9669056225193 236.2265276453915 260.1609771257303 237.2426983587342 259.3500428618805C238.1237133614352 258.6492354733683 239.009734131197 257.9484280848561 239.8757318327157 257.2175860939791C240.8768852448759 256.3866287618861 241.8429982876106 255.5206310603675 242.8141170974061 254.6596391259097C243.6650974977423 253.9037682997287 244.5210836651393 253.1579090076693 245.3520409972323 252.3870208803059C246.3081425058453 251.4959943434833 247.2342094120936 250.569927437235 248.1652820854026 249.6538720651084C248.9712105821916 248.857955102441 249.792156380163 248.0720496738952 250.5830675757696 247.2561096429846C250.7282348205329 247.1009308640997 250.8683962982353 246.9407463181541 251.0135635429985 246.79057330633C240.0978627460387 241.1478223870418 228.5958614820825 236.7195957008804 216.7140476423881 233.5853597999362C210.5219137881768 253.2943161600761 199.512354858827 271.1480101033066 184.6821442203206 285.5302045898713C185.0876113522454 285.4250834815944 185.4980842512311 285.3399854415609 185.903551383156 285.2298585662232zM154.8327552367624 289.5798701420595C176.2524324899311 286.5363637690923 195.0290647349968 264.1806080755537 206.8426749984878 231.1675743095692C189.7629977870338 227.343168275117 172.3335426022063 225.2914295010711 154.8327552367624 225.0455211942092V289.5798701420595zM154.8327552367624 215.0339870726066C173.3978938235092 215.2780182168206 191.884817299931 217.4830586071036 209.9862967126711 221.6115649904995C216.2716629783897 199.8946703180957 219.587357935288 177.426284865689 219.8426520553888 154.8196150982278H154.8327552367624V215.0339870726066zM154.8327552367624 144.8080809766252H219.8426520553888C219.5879836561706 122.2014112091639 216.2722886992723 99.7330257567573 209.9862967126711 78.0161310843535H209.9862967126711C191.884817299931 82.1440117468667 173.3978938235092 84.3490521371497 154.8327552367624 84.5937090022464V144.8080809766252zM154.8327552367624 10.0478259327934V74.5821748806438C172.3341683230889 74.3381437364297 189.7629977870338 72.2864049623838 206.8426749984878 68.4601217652838C195.0290647349968 35.4470879992992 176.2524324899311 13.0913323057606 154.8327552367624 10.0478259327934zM250.5380156722224 52.3765921989292C249.7471044766158 51.5606521680186 248.9311644457052 50.7747467394728 248.1252359489162 49.9788297768054C247.1941632756071 49.0627744046788 246.2630906022981 48.1367074984305 245.306989093685 47.2456809616079C244.476031761592 46.4697870671837 243.620045594195 45.7439508433675 242.7690651938588 44.9680569489433C241.7979463840633 44.1070650144855 240.8318333413287 43.2460730800277 239.84069146329 42.4151157479346C238.9646822276498 41.6842737570577 238.0736556908271 40.9784606014847 237.1826291540045 40.2676416788509C236.1814757418442 39.4667189491227 235.180322329684 38.6657962193945 234.1491343151589 37.8949080920311C233.2380847100931 37.2091180047013 232.3120178038449 36.5433509856147 231.3809451305358 35.8926012677106C230.34475134895 35.151747742712 229.3035518003033 34.3908711494702 228.2473349504742 33.7000752950796C227.3012449759828 33.059337111297 226.3451434673697 32.4386219957577 225.3840361916959 31.8279184143399C224.3128020406844 31.1371225599493 223.2334335181991 30.4694783782149 222.1453049033574 29.8256115900194C221.1441514911971 29.2399368439056 220.1880499825841 28.6692793989743 219.2019138716063 28.1036277211038C218.0937621885214 27.4729010714428 216.9793532966105 26.8571917229642 215.858061474991 26.2564996756681C214.8569080628307 25.7227597628101 213.8557546506705 25.200282825839 212.8546012385102 24.6896945856373C211.7132863486475 24.114031373645 210.5619599246632 23.5583912298961 209.4056277336181 23.0127626202688C208.4044743214578 22.5372147494927 207.3632747728112 22.0616668787166 206.3320867582861 21.6111478432445C205.1557314989978 21.1105711371643 203.9643589385271 20.6099944310841 202.7729863780564 20.1094177250041C201.7367925964705 19.6889332918967 200.7056045819455 19.2684488587894 199.6644050332988 18.8729932609861C198.4429978704633 18.4074569243316 197.216584940567 17.9719551900419 195.9851662436098 17.5464649898738C194.9439666949632 17.1810439944353 193.9027671463165 16.8156229989968 192.8465502964874 16.4752308388623C191.5951085312871 16.0697637069374 190.3436667660868 15.6993369444381 189.0671961655824 15.3339159489996C188.0209908498749 15.0235583912299 186.9697797671067 14.7132008334602 185.9135629172776 14.4278721109946C185.5080957853527 14.3227510027178 185.1026286534278 14.2376529626841 184.6971615215029 14.1325318544073C199.5142320214747 28.5197321080328 210.5100250914073 46.3753032139111 216.689018807084 66.0823824114032C228.5702069258959 62.9487722313416 240.072208189852 58.522422707828 250.9885347076944 52.8821746720702C250.8233443946881 52.7019670578813 250.6831829169856 52.5267652107532 250.5380156722224 52.3765921989292zM257.7363087056546 60.4358771668193C245.7118305047273 66.9508829964522 232.9608903591012 72.0254793543395 219.7475424812336 75.5532936904392C226.2250050579105 98.0767425805147 229.6251723339598 121.3729567606014 229.8541861769914 144.8080809766252H289.873333235999C288.7833274585095 113.9049780267684 277.4815568769854 84.2339194947513 257.7363087056546 60.4358771668193z" />
    <glyph glyph-name="018-star"
      unicode="&#xF112;"
      horiz-adv-x="300" d="M300 184.0921875L190.9927734375 191.2587890625L149.940234375 294.3931640625L108.8876953125 191.2587890625L0 184.0921875L83.516015625 113.178515625L56.110546875 5.6068359375L149.940234375 64.916015625L243.7705078125001 5.6068359375L216.3650390625 113.178515625z" />
    <glyph glyph-name="019-location-1"
      unicode="&#xF113;"
      horiz-adv-x="300" d="M239.7215619561757 262.8362555395616C215.7566713997488 286.8017320346329 183.8927419780117 300 150.0008789079666 300S84.24450047754 286.8017320346329 60.2796099211131 262.8362555395616C36.3141334260418 238.8701931058459 23.1158654606747 207.0068496227532 23.1158654606747 173.1155724913526C23.1158654606747 104.5537198314841 87.9429452010649 47.5272412641431 122.7705522862349 16.8908533024479C127.6104054890732 12.6334231121545 131.7899058396599 8.9566581184729 135.1197951558499 5.8464957939372C139.2916783040592 1.9494178699568 144.6465715753351 0.0005859386445 150.0002929693222 0.0005859386445C155.3551862405981 0.0005859386445 160.7089076345852 1.9494178699568 164.8813767214389 5.8464957939372C168.211266037629 8.9572440571174 172.3907663882156 12.6334231121546 177.2306195910539 16.8908533024479C212.058226676224 47.5278272027875 276.8853064166141 104.5537198314841 276.8853064166141 173.1155724913526C276.8847204779697 207.0068496227532 263.687038451247 238.8701931058459 239.7215619561757 262.8362555395616zM165.6231750452638 30.0850196973041C160.677266947787 25.7344252625493 156.4063601686722 21.9768007359389 152.8848689157596 18.6879271248577C151.2670923185397 17.1779632382094 148.7334936201047 17.177377299565 147.1151310842404 18.6879271248577C143.5942257699722 21.9779726132277 139.322733052213 25.7350112011937 134.3768249547362 30.0856056359485C101.6345735050264 58.8874197019916 40.688165406573 112.5002197269917 40.688165406573 173.1149865527081C40.688165406573 233.3893230260216 89.7247846187199 282.4259422381685 149.9997070306778 282.4259422381685C210.2740435039912 282.4259422381685 259.3106627161381 233.3893230260216 259.3106627161381 173.1149865527081C259.3112486547826 112.5002197269917 198.3654264949736 58.8874197019916 165.6231750452638 30.0850196973041zM150.0008789079666 233.8252613774636C119.1682015003935 233.8252613774636 94.0841681331409 208.7418139488554 94.0841681331409 177.9091365412823S119.1682015003936 121.993011705101 150.0008789079666 121.993011705101S205.9170037441479 147.0764591337092 205.9170037441479 177.9091365412823S180.8335563155397 233.8252613774636 150.0008789079666 233.8252613774636zM150.0008789079666 139.5670694669326C128.8584548016695 139.5670694669326 111.657639956328 156.7678843122741 111.657639956328 177.9097224799267S128.8584548016695 216.2523754929209 150.0008789079666 216.2523754929209S188.3435319209608 199.0515606475794 188.3435319209608 177.9097224799267S171.1433030142637 139.5670694669326 150.0008789079666 139.5670694669326z" />
    <glyph glyph-name="020-book"
      unicode="&#xF114;"
      horiz-adv-x="300" d="M150 240.22265625V240.0931640625C145.2146484375 244.48828125 137.9173828125 250.5181640625 128.312109375 256.5251953125C111.7294921875 266.896875 84.7037109375 279.2607421875 50.1240234375 279.2607421875H41.3349609375V240.22265625H0V20.73984375H300V240.22265625H150zM17.578125 38.3185546875V222.6451171875H41.3349609375V63.4318359375H50.1240234375C83.9103515625 63.4318359375 109.7232421875 50.3484375 126.3134765625 38.3185546875H17.578125zM141.2109375 49.074609375C134.7767578125 54.0861328125 128.7439453125 57.9603515625 124.0248046875 60.7177734375C103.5931640625 72.657421875 81.7283203125 79.378125 58.9130859375 80.7474609375V261.387890625C79.894921875 259.9705078125 99.8841796875 253.4525390625 118.4513671875 241.9587890625C129.8958984375 234.87421875 137.68828125 227.698828125 141.2109375 224.1720703125V49.074609375zM282.421875 38.3185546875H158.7890625V222.6451171875H282.421875V38.3185546875zM181.318359375 190.8404296875H260.73046875V173.2623046875H181.318359375V190.8404296875zM181.318359375 156.9146484375H260.73046875V139.3365234375H181.318359375V156.9146484375zM181.318359375 122.9888671875H260.73046875V105.4107421875H181.318359375V122.9888671875zM181.318359375 89.0630859375H260.73046875V71.4849609375H181.318359375V89.0630859375z" />
    <glyph glyph-name="021-star-1"
      unicode="&#xF115;"
      horiz-adv-x="300" d="M299.2153661634532 185.0003060665362C297.2400827099782 191.086717221135 291.8521143996492 195.3958232876713 285.5028257015943 195.9714410958904L198.9016447013576 203.8489174168298L164.6763710478514 284.1326747553817C162.1494732831759 290.0310358121331 156.3998653258708 293.8379095890411 150.0002220740297 293.8379095890411S137.8486815687521 290.0310358121331 135.3378059472598 284.1326747553817L101.1125322937535 203.8489174168298L14.497618446465 195.9714410958904C8.1483297484101 195.3843569471624 2.7718055749488 191.0752508806263 0.7850779846061 185.0003060665362C-1.1902054688689 178.9138943248532 0.634013151353 172.2381052837574 5.4360347398784 168.018437964775L70.899624237851 110.5048309197652L51.5976960786239 25.3271771037182C50.1854716591643 19.0641816046967 52.6116591443728 12.5879095890411 57.7982086536097 8.8314886497064C60.5860363717416 6.8019205479452 63.8613898283415 5.788282778865 67.1481880077563 5.788282778865C69.9726374326227 5.788282778865 72.7993755676731 6.5404843444227 75.3239840362172 8.054060665362L150.0002220740297 52.7917074363992L224.6627266788431 8.054060665362C230.139960545824 4.7746450097847 237.0271301220804 5.0750671232876 242.2022349085023 8.8314886497064C247.3887844177392 12.5879095890411 249.814972488895 19.0641816046967 248.4027480694355 25.3271771037182L229.1008199102083 110.5048309197652L294.564409408181 168.018437964775C299.364141700575 172.2381052837574 301.1906496169282 178.9001342465754 299.2153661634532 185.0003060665362zM151.437624063356 53.6562804305284" />
    <glyph glyph-name="022-graduate"
      unicode="&#xF116;"
      horiz-adv-x="300" d="M192.6099609375 114.8431640625C207.6802734375 126.9474609375 217.4537109375 145.3857421875 217.850390625 166.0810546875H217.866796875V235.1671875L233.4990234375 241.3546875V135.1025390625H251.044921875V248.2986328125L265.6916015625 254.0958984375L151.3072265625 300L34.0248046875 254.2078125L83.1064453125 234.7810546875L83.1228515625 166.08046875C83.518359375 145.480078125 93.20390625 127.116796875 108.155859375 115.01015625C59.3923828125 104.267578125 22.79296875 60.7171875 22.79296875 8.77265625V1e-13H277.205859375V8.77265625C277.2064453125 60.4453125 240.9908203125 103.8158203125 192.6099609375 114.8431640625zM151.21875 281.1298828125L218.3015625 254.2083984375L150 227.175L81.9814453125 254.096484375zM150 208.3048828125L200.321484375 228.2220703125V183.6263671875H100.65234375V227.8365234375zM100.6857421875 166.0810546875H200.288671875C199.5890625 139.2076171875 177.526171875 117.5572265625 150.4869140625 117.5572265625S101.3853515625 139.20703125 100.6857421875 166.0810546875zM168.4224609375 100.011328125C172.0166015625 100.011328125 175.562109375 99.79921875 179.0490234375 99.3931640625L150.0849609375 67.8345703125L121.787109375 99.4833984375C125.0044921875 99.828515625 128.269921875 100.011328125 131.5775390625 100.011328125zM40.7578125 17.5458984374999C44.2248046875 53.7046875 68.886328125 83.7697265625 102.1376953125 95.136328125L149.9150390625 41.7005859375L198.690234375 94.8451171874999C231.521484375 83.2646484374999 255.8044921875 53.403515625 259.2421875 17.5458984374999z" />
    <glyph glyph-name="023-play-button"
      unicode="&#xF117;"
      horiz-adv-x="300" d="M21.4285714285714 300L278.5714285714285 150L21.4285714285714 1e-13z" />
    <glyph glyph-name="024-checked"
      unicode="&#xF118;"
      horiz-adv-x="300" d="M102.2506737049893 44.3730384926752L0 146.6237121976645L13.5040422299358 160.1277544276003L102.2506737049893 71.3811229525468L286.4959577700642 255.6264070176217L300 242.1223647876859z" />
    <glyph glyph-name="025-checked-1"
      unicode="&#xF119;"
      horiz-adv-x="300" d="M0 140.4289737681261L102.7331657472709 37.499709051975L300 234.5716081279241L271.6791192421386 262.5008728440752L102.7331657472709 93.7510183180877L27.928682820101 168.5549193492075z" />
    <glyph glyph-name="026-magnifying-glass"
      unicode="&#xF11A;"
      horiz-adv-x="300" d="M220.1560251222947 106.3573836503362C234.918670644234 126.5170940999849 243.7489089491386 151.2795844502462 243.7489089491386 178.1240907909489C243.7489089491386 245.3235135523065 189.0735862890306 299.9988362124145 121.8741635276729 299.9988362124145S0 245.3235135523065 0 178.1240907909489S54.6753226601081 56.2493453694832 121.8747454214657 56.2493453694832C148.7192517621684 56.2493453694832 173.4840696876006 65.0807474619732 193.6437801372493 79.8433929839126L273.4865912273692 0.0005818937927L300 26.5139906664236C300 26.5145725602163 220.1560251222946 106.3573836503362 220.1560251222946 106.3573836503362zM121.8747454214657 93.7494908429314C75.3476815411651 93.7494908429314 37.5001454734482 131.5970269106483 37.5001454734482 178.1240907909489S75.3476815411651 262.4986907389664 121.8747454214657 262.4986907389664S206.2493453694832 224.6511546712494 206.2493453694832 178.1240907909489S168.4012274079735 93.7494908429314 121.8747454214657 93.7494908429314z" />
    <glyph glyph-name="027-user"
      unicode="&#xF11B;"
      horiz-adv-x="300" d="M203.90625 182.8125C203.90625 212.578125 179.765625 236.71875 150 236.71875S96.09375 212.578125 96.09375 182.8125S120.234375 128.90625 150 128.90625S203.90625 153.046875 203.90625 182.8125zM110.15625 182.8125C110.15625 204.84375 127.96875 222.65625 150 222.65625S189.84375 204.84375 189.84375 182.8125S172.03125 142.96875 150 142.96875S110.15625 160.78125 110.15625 182.8125zM59.765625 46.40625C60.9375 45.703125 62.109375 45.46875 63.28125 45.46875C65.625 45.46875 68.203125 46.640625 69.375 48.984375C85.78125 78.046875 116.71875 96.09375 150 96.09375S214.21875 78.046875 230.859375 48.984375C232.734375 45.703125 237.1875 44.53125 240.46875 46.40625S244.921875 52.734375 243.046875 56.015625C224.0625 89.296875 188.4375 110.15625 150 110.15625S75.9375 89.296875 56.953125 56.015625C55.078125 52.734375 56.25 48.28125 59.765625 46.40625z" />
    <glyph glyph-name="028-google-play"
      unicode="&#xF11C;"
      horiz-adv-x="300" d="M227.1 102.025L191.275 137.25L59.7625 7.5625zM227.1 197.9125L59.7625 292.375L191.275 162.6875zM279.5375 132.1625C290.2625 140.5375 290.2625 159.4125 278.825 167.7875L243.725 187.7625L204.5625 149.9625L243.725 112.1625zM25.425 0L178.35 150.025L25.425 299.9875V300C17.6875 296.0125 12.5 288.75 12.5 279.3125V20.6875C12.5 11.25 17.6875 3.9875 25.425 0z" />
    <glyph glyph-name="029-check"
      unicode="&#xF11D;"
      horiz-adv-x="300" d="M257.67 229.390375C262.91875 224.797625 263.395 216.7965 258.72625 211.614875L127.3025 65.7425C122.6095 60.53375 114.55175 60.2025 109.447125 65.0075L33.39675 136.6025C28.654 141.0675 28.2 148.5075 32.269125 153.59375C36.759125 159.2062500000001 45.1205 159.97875 50.464125 155.1725000000001L109.469 102.0987500000001C114.59675 97.48625 122.491375 97.89875 127.11125 103.02L240.155 228.3563750000001C244.72875 233.4283750000001 252.53 233.8881250000001 257.67 229.3903750000001z" />
    <glyph glyph-name="030-calendar"
      unicode="&#xF11E;"
      horiz-adv-x="300" d="M261.328125 276.5625H234.375V290.625C234.375 295.80234375 230.1779296875 300 225 300S215.625 295.80234375 215.625 290.625V276.5625H84.375V290.625C84.375 295.80234375 80.1779296875 300 75 300S65.625 295.80234375 65.625 290.625V276.5625H38.671875C17.3478515625 276.5625 0 259.2146484375 0 237.890625V38.671875C0 17.3478515625 17.3478515625 0 38.671875 0H261.328125C282.6521484375001 0 300 17.3478515625 300 38.671875V237.890625C300 259.2146484375 282.6521484375001 276.5625 261.328125 276.5625zM38.671875 257.8125H65.625V248.4375C65.625 243.26015625 69.8220703125 239.0625 75 239.0625S84.375 243.26015625 84.375 248.4375V257.8125H215.625V248.4375C215.625 243.26015625 219.8220703125 239.0625 225 239.0625S234.375 243.26015625 234.375 248.4375V257.8125H261.328125C272.31328125 257.8125 281.25 248.87578125 281.25 237.890625V215.625H18.75V237.890625C18.75 248.87578125 27.68671875 257.8125 38.671875 257.8125zM261.328125 18.75H38.671875C27.68671875 18.75 18.75 27.68671875 18.75 38.671875V196.875H281.25V38.671875C281.25 27.68671875 272.31328125 18.75 261.328125 18.75z" />
    <glyph glyph-name="031-search-2"
      unicode="&#xF11F;"
      horiz-adv-x="300" d="M72.62767190625 232.05982809375C111.465575625 269.4980025 169.2642075 268.00581403125 205.2101934375 232.05982809375C239.5835784375 197.6864428125 241.685008125 143.261835 211.5144825 106.43677125L264.8723278125 53.07342375L251.61407625 39.8151721875L198.25072875 93.1730175C161.4256650000001 63.002491875 107.0010571875 65.1039215625 72.62767190625 99.4773065625C36.68168596875 135.4232925 34.99147959375 195.7800553125 72.62767190625 232.05982809375zM191.9519409375 218.801575875C162.662619375 248.0908978125 115.17524625 248.0908978125 85.885924125 218.801575875C56.5966021875 189.51225375 56.5966021875 142.024880625 85.885924125 112.7355590625C115.17524625 83.4462365625 162.662619375 83.4462365625 191.9519409375 112.7355590625C221.2412634375 142.024880625 221.2412634375 189.51225375 191.9519409375 218.801575875z" />
    <glyph glyph-name="032-phone-call"
      unicode="&#xF120;"
      horiz-adv-x="300" d="M281.578125 88.18125C281.08125 88.59375 224.934375 128.775 209.7 126.140625C202.3781250000001 124.846875 198.1875 119.859375 189.796875 109.85625C188.446875 108.24375 185.19375 104.390625 182.68125 101.64375A116.79375 116.79375 0 0 0 167.203125 107.94375A128.4375 128.4375 0 0 0 107.94375 167.203125A116.79375 116.79375 0 0 0 101.64375 182.68125C104.4 185.203125 108.2625 188.45625 109.9125 189.84375C119.859375 198.1875 124.846875 202.378125 126.140625 209.709375C128.79375 224.8874999999999 88.59375 281.08125 88.18125 281.5874999999999A21.459375 21.459375 0 0 1 72.1875 290.625C55.89375 290.625 9.375 230.2875 9.375 220.1156249999999C9.375 219.5249999999999 10.228125 159.4874999999999 84.2625 84.1781249999999C159.4875 10.2281249999999 219.525 9.3749999999999 220.115625 9.3749999999999C230.2875 9.3749999999999 290.625 55.8937499999999 290.625 72.1874999999999A21.440625 21.440625 0 0 1 281.578125 88.1812499999999zM219.084375 28.18125C210.890625 28.85625 160.509375 35.503125 97.51875 97.3875C35.315625 160.715625 28.8375 211.2375 28.190625 219.065625A253.63125 253.63125 0 0 0 72.309375 271.2C72.684375 270.825 73.18125 270.2625 73.81875 269.53125A331.790625 331.790625 0 0 0 107.325 212.690625A111.43125 111.43125 0 0 0 97.8 204.15A94.059375 94.059375 0 0 1 83.625 190.81875L81.346875 187.63125L82.021875 183.778125A107.04375 107.04375 0 0 1 91.06875 159.01875A147.28125 147.28125 0 0 1 159.01875 91.078125A106.771875 106.771875 0 0 1 183.778125 82.021875L187.63125 81.346875L190.81875 83.6249999999999A94.846875 94.846875 0 0 1 204.2062500000001 97.85625C207.140625 101.3625 211.06875 106.040625 212.5500000000001 107.3625A329.653125 329.653125 0 0 0 269.5312500000001 73.81875C270.3093750000001 73.1625 270.8531250000001 72.65625 271.2187500000001 72.328125A253.415625 253.415625 0 0 0 219.084375 28.1999999999999z" />
    <glyph glyph-name="033-comment"
      unicode="&#xF121;"
      horiz-adv-x="300" d="M75 18.75C73.621875 18.75 72.234375 19.059375 70.93125 19.678125C67.696875 21.24375 65.625 24.515625 65.625 28.125V75H37.5C21.99375 75 9.375 87.61875 9.375 103.125V253.125C9.375 268.63125 21.99375 281.25 37.5 281.25H262.5C278.00625 281.25 290.625 268.63125 290.625 253.125V103.125C290.625 87.61875 278.00625 75 262.5 75H148.603125L80.859375 20.803125C79.1625 19.44375 77.090625 18.75 75 18.75zM37.5 262.5C32.325 262.5 28.125 258.290625 28.125 253.125V103.125C28.125 97.959375 32.325 93.75 37.5 93.75H75C80.184375 93.75 84.375 89.559375 84.375 84.375V47.625L139.453125 91.696875C141.121875 93.028125 143.175 93.75 145.3125 93.75H262.5C267.675 93.75 271.875 97.959375 271.875 103.125V253.125C271.875 258.290625 267.675 262.5 262.5 262.5zM225 187.5H75C69.815625 187.5 65.625 191.7 65.625 196.875S69.815625 206.25 75 206.25H225C230.184375 206.25 234.375 202.05 234.375 196.875S230.184375 187.5 225 187.5zM150 150H75C69.815625 150 65.625 154.2 65.625 159.375S69.815625 168.75 75 168.75H150C155.184375 168.75 159.375 164.55 159.375 159.375S155.184375 150 150 150z" />
    <glyph glyph-name="034-mortarboard"
      unicode="&#xF122;"
      horiz-adv-x="300" d="M300 188.7560887517937L149.9997071542223 261.9277061390237L0 188.7560887517937L53.0671690598674 162.8691076989155V81.1229659420361L150.0049783782201 38.0728795525317L246.9427876965727 81.1229659420361V162.8737932313579L264.5158771219117 171.4459748347862V106.6362757826304H282.0866237810295V180.0175707466592zM229.372041037455 92.5445369620179L150.0049783782201 57.2976191638277L70.6379157189852 92.5445369620179V154.2975117870426L149.9997071542223 115.5838856730084L229.372041037455 154.3027830110403zM149.9997071542223 135.1336840974981L40.0765303632264 188.7560887517937L150.0002928457776 242.3784934060893L259.9240553283289 188.7560887517937z" />
    <glyph glyph-name="035-chat-box"
      unicode="&#xF123;"
      horiz-adv-x="300" d="M292.96875 294.07265625H7.03125A7.03125 7.03125 0 0 1 0 287.04140625V73.76015625A7.03125 7.03125 0 0 1 7.03125 66.72890625H47.7228515625V12.9580078125A7.03125 7.03125 0 0 1 58.2697265625 6.8689453125L161.949609375 66.7294921875H292.96875A7.03125 7.03125 0 0 1 300 73.7607421875V287.0419921875A7.03125 7.03125 0 0 1 292.96875 294.07265625zM285.9375 80.79140625H160.0658203125A7.03125 7.03125 0 0 1 156.5501953125 79.84921875L61.7853515625 25.13671875V73.7607421875A7.03125 7.03125 0 0 1 54.7541015625 80.7919921875H14.0625V280.0107421875H285.9375z" />
    <glyph glyph-name="036-play-1"
      unicode="&#xF124;"
      horiz-adv-x="300" d="M245.3437500000001 184.03125L84.375 277.03125A30.28125 30.28125 0 0 1 69.1875 281.25A31.6875 31.6875 0 0 1 37.5 249.5625V49.96875A31.21875 31.21875 0 0 1 85.3125 23.53125L246.46875 125.34375A34.21875 34.21875 0 0 1 245.34375 184.03125z" />
    <glyph glyph-name="037-humanitarian"
      unicode="&#xF125;"
      horiz-adv-x="300" d="M143.785546875 167.830078125C145.5017578125 166.1138671875 147.751171875 165.25546875 150 165.25546875S154.498828125 166.1138671875 156.214453125 167.830078125L212.0876953125 223.7033203125C229.51875 241.1337890625 229.51875 269.49609375 212.0876953125 286.9265625C195.031640625 303.9837890625 167.5060546875 304.3494140625 150 288.0234375C132.49453125 304.3494140625 104.9689453125 303.9837890625 87.91171875 286.9271484375C70.4806640625 269.4966796875 70.4806640625 241.134375 87.91171875 223.70390625zM100.3412109375 274.49765625C105.6298828125 279.7857421875 112.5767578125 282.430078125 119.5236328125 282.430078125S133.4173828125 279.7857421875 138.7060546875 274.49765625L143.785546875 269.4181640625C147.2173828125 265.986328125 152.7826171875 265.986328125 156.2150390625 269.4181640625L161.29453125 274.49765625C171.871875 285.0744140625 189.08203125 285.0744140625 199.659375 274.49765625C210.2361328125 263.9203125 210.2361328125 246.71015625 199.659375 236.1328125L150 186.474609375L100.3412109375 236.1333984375C89.764453125 246.71015625 89.764453125 263.9203125 100.3412109375 274.49765625zM273.046875 276.5625C258.5080078125 276.5625 246.6796875 264.7341796875 246.6796875 250.1953125V173.745703125C236.3478515625 181.69921875 221.426953125 180.94453125 211.9658203125 171.4828125L160.9453125 120.459375C156.6181640625 116.1322265625 152.954296875 111.31875 150 106.1443359375C147.045703125 111.31875 143.3818359375 116.1322265625 139.0546875 120.459375L88.0341796875 171.4828125C78.573046875 180.94453125 63.6521484375 181.69921875 53.3203125 173.7451171875V250.1953125C53.3203125 264.7341796875 41.4919921875 276.5625 26.953125 276.5625S0.5859375 264.7341796875 0.5859375 250.1953125V142.5029296875C0.5859375 126.77109375 6.132421875 111.451171875 16.203515625 99.365625L54.4265625 53.4978515625C57.4916015625 49.8205078125 59.1796875 45.158203125 59.1796875 40.369921875V8.7890625C59.1796875 3.93515625 63.11484375 0 67.96875 0H232.03125C236.88515625 0 240.8203125 3.93515625 240.8203125 8.7890625V40.3693359375C240.8203125 45.1576171875 242.5083984375 49.819921875 245.5734375 53.4978515625L283.7958984375 99.3650390625C293.867578125 111.451171875 299.4140625 126.77109375 299.4140625 142.5029296875V250.1953125C299.4140625 264.7341796875 287.5857421875 276.5625 273.046875 276.5625zM141.2109375 17.578125H76.7578125V40.3693359375C76.7578125 49.2615234375 73.6224609375 57.9205078125 67.9306640625 64.75078125L29.708203125 110.61796875C22.2638671875 119.5517578125 18.1640625 130.875 18.1640625 142.5029296875V250.1953125C18.1640625 255.0416015625001 22.1068359375 258.984375 26.953125 258.984375S35.7421875 255.0416015625001 35.7421875 250.1953125V167.40234375C35.7421875 155.6642578125 40.3130859375 144.6287109375 48.6134765625 136.32890625L86.023828125 98.9150390625C89.4556640625 95.4837890625 95.0208984375 95.483203125 98.4533203125 98.914453125C99.955078125 100.4162109375 100.8 102.3263671875 100.9875 104.2875C101.2294921875 106.8099609375 100.38515625 109.4162109375 98.4533203125 111.3474609375L63.1013671875 146.7C61.48828125 148.3505859375 60.601171875 150.5267578125 60.601171875 152.8400390625C60.601171875 155.1873046875 61.5158203125 157.39453125 63.1751953125 159.05390625C66.60234375 162.48046875 72.1775390625 162.4798828125 75.603515625 159.0533203125L126.6240234375 108.0298828125C136.0306640625 98.6232421875 141.2109375 86.11640625 141.2109375 72.8138671875zM281.8359375 142.5029296875C281.8359375 130.875 277.7361328125 119.5517578125 270.2923828125 110.6185546875L232.069921875 64.751953125C226.3775390625 57.92109375 223.2421875 49.2615234375 223.2421875 40.3693359375V17.5781250000001H158.7890625V72.8138671875C158.7890625 86.11640625 163.9693359375 98.623828125 173.375390625 108.03046875L224.3958984375 159.0539062500001C227.821875 162.4816406250001 233.3970703125 162.4822265625001 236.82421875 159.0544921875001C238.4841796875 157.3951171875 239.3982421875 155.1873046875001 239.398828125 152.8406250000001C239.398828125 150.5291015625001 238.512890625 148.353515625 236.900390625 146.7023437500001L201.54609375 111.348046875C199.61484375 109.4167968750001 198.769921875 106.8105468750001 199.0119140625 104.2880859375C199.1994140625 102.3269531250001 200.0443359375 100.4173828125001 201.54609375 98.9150390625C204.978515625 95.483203125 210.54375 95.4837890625 213.9755859375 98.915625L251.3859375 136.3294921875C259.6869140625 144.6287109375 264.2578125 155.6642578125 264.2578125 167.40234375V250.1953125000001C264.2578125 255.0416015625001 268.2005859375 258.9843750000001 273.046875 258.9843750000001S281.8359375 255.0416015625001 281.8359375 250.1953125000001z" />
    <glyph glyph-name="038-pinterest"
      unicode="&#xF126;"
      horiz-adv-x="300" d="M129.240234375 101.578125C121.365234375 60.28125 111.744140625 20.68359375 83.244140625 0C74.44921875 62.42578125 96.1640625 109.306640625 106.2421875 159.076171875C89.05078125 188.021484375 108.310546875 246.263671875 144.57421875 231.908203125C189.193359375 214.259765625 105.9375 124.3125 161.830078125 113.080078125C220.189453125 101.35546875 244.0078125 214.3359375 207.826171875 251.07421875C155.537109375 304.130859375 55.623046875 252.287109375 67.91015625 176.326171875C70.8984375 157.7578125 90.087890625 152.12109375 75.580078125 126.498046875C42.111328125 133.916015625 32.126953125 160.306640625 33.41015625 195.4921875C35.478515625 253.08984375 85.16015625 293.4140625 134.994140625 298.9921875C198.01171875 306.046875 257.15625 275.859375 265.3242187500001 216.57421875C274.5234375 149.666015625 236.8769531250001 77.203125 169.494140625 82.412109375C151.224609375 83.830078125 143.560546875 92.8828125 129.240234375 101.578125z" />
    <glyph glyph-name="039-search-3"
      unicode="&#xF127;"
      horiz-adv-x="300" d="M298.7076470588235 92.7770588235294L260.8252941176471 130.6594117647059C280.9811764705883 157.5794117647059 275.9476470588235 196.4458823529412 248.3511764705883 217.1094117647059V300H45.41C21.0835294117647 300 1.2923529411765 280.2088235294118 1.2923529411765 255.8823529411765V35.2941176470588C1.2923529411765 15.8329411764706 17.1252941176471 0 36.5864705882353 0H248.3511764705882V17.6470588235294H230.7041176470588V52.9411764705883H248.3511764705882C248.3511764705882 55.0835294117647 248.3511764705882 111.1564705882353 248.3511764705882 118.1770588235294L286.23 80.2982352941176zM242.5552941176471 136.4511764705882C225.3541176470588 119.25 197.3647058823529 119.25 180.1635294117647 136.4511764705882C162.9623529411765 153.6529411764706 162.9623529411765 181.6411764705882 180.1635294117647 198.8429411764706C197.3641176470588 216.0435294117647 225.3535294117647 216.0447058823529 242.5552941176471 198.8429411764706C259.7564705882353 181.6411764705882 259.7564705882353 153.6529411764706 242.5552941176471 136.4511764705882zM36.5864705882353 70.5882352941176C30.16 70.5882352941176 24.1347058823529 68.8535294117647 18.9394117647059 65.84V176.4705882352941H45.41V70.5882352941176zM45.41 194.1176470588235H18.9394117647059V211.7647058823529H45.41zM45.41 282.3529411764706V229.4117647058823H18.9394117647059V255.8823529411765C18.9394117647059 270.4782352941176 30.8135294117647 282.3529411764706 45.41 282.3529411764706zM213.0570588235294 17.6470588235294H36.5864705882353C13.1694117647059 18.6194117647059 13.1876470588235 51.9776470588236 36.5864705882353 52.9411764705883H213.0570588235294zM63.0570588235294 70.5882352941177V282.3529411764706H230.7041176470589V226.2941176470589C169.3647058823529 245.9364705882353 122.1352941176471 170.7423529411765 167.6858823529412 123.9723529411765C184.464705882353 107.1929411764706 208.9323529411765 101.8576470588236 230.7041176470589 109V70.5882352941176zM80.7041176470588 264.7058823529412H124.8217647058824V247.0588235294118H80.7041176470588zM80.7041176470588 229.4117647058824H124.8217647058824V211.7647058823529H80.7041176470588z" />
    <glyph glyph-name="040-blackboard"
      unicode="&#xF128;"
      horiz-adv-x="300" d="M282.421875 62.2388671875V217.5123046875H214.3201171875L172.4291015625 277.9705078125C167.77734375 285.48046875 159.4646484375 290.4955078125 150 290.4955078125S132.22265625 285.48046875 127.5708984375 277.9705078125L85.6798828125 217.5123046875H17.578125V62.2388671875H0V9.5044921875H300V62.2388671875zM150 272.9173828125C154.8462890625 272.9173828125 158.7890625 268.974609375 158.7890625 264.1283203125S154.8462890625 255.3392578125 150 255.3392578125S141.2109375 259.28203125 141.2109375 264.1283203125S145.1537109375 272.9173828125 150 272.9173828125zM128.656640625 248.6736328125C133.453125 242.068359375 141.230859375 237.76171875 150 237.76171875S166.546875 242.068359375 171.343359375 248.6736328125L192.9345703125 217.5123046875H107.0654296875zM35.15625 199.9341796875H264.84375V62.2388671875H247.17890625V182.73515625H52.665234375V62.2388671875H35.15625zM229.60078125 97.3951171875H158.6671875V62.2388671875H70.243359375V165.15703125H229.6001953125V97.3951171875zM176.2453125 79.8169921875H229.6001953125V62.2388671875H176.2453125zM282.421875 27.0826171875H17.578125V44.6607421875H282.421875z" />
    <glyph glyph-name="041-pencils"
      unicode="&#xF129;"
      horiz-adv-x="300" d="M88.4765625 300C64.2451171875 300 44.53125 280.2802734375 44.53125 256.041796875V71.3091796875L88.4765625 0L132.421875 71.3091796875V256.041796875C132.421875 280.2802734375 112.7080078125 300 88.4765625 300zM88.4765625 282.4166015625C103.0154296875 282.4166015625 114.84375 270.584765625 114.84375 256.0412109375V246.4224609375H62.109375V256.041796875C62.109375 270.584765625 73.9376953125 282.4166015625 88.4765625 282.4166015625zM97.265625 82.592578125V228.8396484375H114.84375V82.5931640625H97.265625zM62.109375 82.592578125V228.8396484375H79.6875V82.5931640625H62.109375zM69.06328125 65.0091796875H107.88984375L88.4765625 33.5080078125zM211.5234375 300C187.2919921875 300 167.578125 280.2802734375 167.578125 256.041796875V71.3091796875L211.5234375 0L255.46875 71.3091796875V256.041796875C255.46875 280.2802734375 235.7548828125 300 211.5234375 300zM211.5234375 282.4166015625C226.0623046875 282.4166015625 237.890625 270.584765625 237.890625 256.0412109375V246.4224609375H185.15625V256.041796875C185.15625 270.584765625 196.9845703125 282.4166015625 211.5234375 282.4166015625zM220.3125 82.592578125V228.8396484375H237.890625V82.5931640625H220.3125zM185.15625 82.592578125V228.8396484375H202.734375V82.5931640625H185.15625zM192.11015625 65.0091796875H230.93671875L211.5234375 33.5080078125z" />
    <glyph glyph-name="042-projector-screen"
      unicode="&#xF12A;"
      horiz-adv-x="300" d="M300 247.2521484375V300H0V247.2521484375H31.5544921875V86.7333984375H14.35546875V69.1505859375H141.2109375V51.2361328125C130.9810546875 47.6068359375 123.6328125 37.83515625 123.6328125 26.37421875C123.6328125 11.83125 135.4611328125 0 150 0S176.3671875 11.83125 176.3671875 26.37421875C176.3671875 37.83515625 169.0189453125 47.6068359375 158.7890625 51.2361328125V69.1505859375H285.64453125V86.7333984375H268.4455078125V247.2521484375zM150 17.5828125C145.1537109375 17.5828125 141.2109375 21.5267578125 141.2109375 26.37421875S145.1537109375 35.165625 150 35.165625S158.7890625 31.2216796875001 158.7890625 26.37421875S154.8462890625 17.5828125 150 17.5828125zM17.578125 282.4171875H282.421875V264.834375H17.578125zM250.8673828125 86.7333984375H49.1326171875V247.2521484375H250.8673828125zM93.746484375 165.65859375L122.848828125 139.381640625L154.9470703125 194.51484375H228.4470703125V212.09765625H144.842578125L118.5544921875 166.9453125L100.5064453125 183.24140625H71.553515625V165.65859375zM195.61640625 176.8125H178.03828125V165.090234375H166.31953125V147.507421875H178.03828125V135.7857421875H195.61640625V147.507421875H207.33515625V165.090234375H195.61640625z" />
    <glyph glyph-name="043-pen-drive"
      unicode="&#xF12B;"
      horiz-adv-x="300" d="M274.4923828125 274.4537109375L274.201171875 274.74375C257.7591796875 291.033984375 235.974609375 300 212.8119140625 300C189.512109375 300 167.6080078125 290.9279296875 151.1326171875 274.4548828125L52.1103515625 175.4466796875L67.487109375 160.0716796875L0 92.5939453125L92.6056640625 0L160.093359375 67.4783203125L175.470703125 52.1033203125L274.49296875 151.112109375C308.5025390624999 185.117578125 308.5025390624999 240.4482421875 274.4923828125 274.4537109375zM92.6056640625 24.8484375L24.8513671875 92.5939453125L79.9125 147.648046875L147.6673828125 79.9025390625zM262.0669921875 163.536328125L175.470703125 76.95234375L76.96171875 175.4466796875L163.5580078125 262.0306640625C176.7140625 275.1849609375 194.2060546875 282.42890625 212.811328125 282.42890625S248.90859375 275.184375 262.0646484375 262.0306640625L262.1548828125 261.9404296875C289.2240234375 234.778125 289.1953125 190.6611328125 262.0669921875 163.536328125zM80.0221658203124 65.7164021484375L106.7923341796874 92.4865705078125L119.2155117187499 80.06339296875L92.445343359375 53.293224609375zM53.23953515625 92.460619921875L80.0092892578125 119.2303740234375L92.432466796875 106.807196484375L65.6627126953125 80.0374423828125zM208.4560546875 247.62421875C197.6484375 236.8177734375 197.6484375 219.234375 208.4560546875 208.4279296875C213.86015625 203.0244140625 220.9587890625 200.32265625 228.0568359375 200.32265625C235.1560546875 200.32265625 242.2541015625 203.0244140625 247.658203125 208.4279296875C258.4658203125 219.234375 258.4658203125 236.8177734375 247.658203125 247.62421875C236.85 258.4318359375 219.263671875 258.430078125 208.4560546875 247.62421875zM235.2328125 220.8521484375C231.2759765625 216.8970703125 224.8388671875 216.896484375 220.88203125 220.8521484375C216.92578125 224.8078125 216.92578125 231.2443359375 220.88203125 235.2C222.8607421875 237.178125 225.4587890625 238.1666015625 228.057421875 238.1666015625C230.65546875 238.1666015625 233.2546875 237.1775390625 235.2322265625 235.2C239.1890625 231.2443359375 239.1890625 224.8078125 235.2328125 220.8521484375z" />
    <glyph glyph-name="044-agenda"
      unicode="&#xF12C;"
      horiz-adv-x="300" d="M43.119140625 300V264.901171875H25.541015625V247.323046875H43.119140625V229.5251953125H25.541015625V211.9470703125H43.119140625V194.14921875H25.541015625V176.57109375H43.119140625V158.7732421875H25.541015625V141.1951171875H43.119140625V123.397265625H25.541015625V105.819140625H43.119140625V88.0212890625H25.541015625V70.4431640625H43.119140625V52.6453125H25.541015625V35.0671875H43.119140625V0H274.458984375V300zM256.880859375 17.578125H60.697265625V35.0671875H78.275390625V52.6453125H60.697265625V70.4431640625H78.275390625V88.0212890625H60.697265625V105.819140625H78.275390625V123.397265625H60.697265625V141.1951171875H78.275390625V158.7732421875H60.697265625V176.57109375H78.275390625V194.14921875H60.697265625V211.9470703125H78.275390625V229.5251953125H60.697265625V247.323046875H78.275390625V264.901171875H60.697265625V282.421875H256.880859375zM221.2728515625 158.6208984375C221.2728515625 179.403515625 209.37890625 197.4609375 192.0404296875 206.3431640625C196.3130859375 211.68046875 198.8765625 218.4421875 198.8765625 225.79453125C198.8765625 242.9900390625 184.88671875 256.9798828125 167.6912109375 256.9798828125C150.4951171875 256.9798828125 136.5052734375 242.990625 136.5052734375 225.79453125C136.5052734375 218.4421875 139.06875 211.68046875 143.34140625 206.3431640625C126.0029296875 197.4609375 114.108984375 179.403515625 114.108984375 158.6208984375V149.8318359375H221.272265625V158.6208984375zM154.083984375 225.79453125C154.083984375 233.2974609375 160.18828125 239.4017578125 167.691796875 239.4017578125C175.1947265625 239.4017578125 181.2990234375 233.298046875 181.2990234375 225.79453125C181.2990234375 218.4251953125 175.4091796875 212.409375 168.090234375 212.197265625C167.9572265625001 212.1984375 167.8248046875 212.2025390625 167.691796875 212.2025390625S167.4263671875 212.1984375 167.293359375 212.197265625C159.973828125 212.409375 154.083984375 218.4251953125 154.083984375 225.79453125zM132.7728515625 167.4099609375C136.6798828125 182.9279296875 150.6884765625 194.469140625 167.3677734375 194.6173828125C167.476171875 194.6162109375 167.5828125 194.6091796875 167.6912109375 194.6091796875S167.90625 194.6162109375 168.0146484375 194.6173828125C184.693359375 194.469140625 198.7025390625001 182.9279296875 202.6095703125 167.4099609375zM113.8705078125 132.2537109375H221.2693359375V114.6755859375H113.8705078125zM186.2419921875 52.6453125H238.9763671875V35.0671875H186.2419921875z" />
    <glyph glyph-name="045-desk"
      unicode="&#xF12D;"
      horiz-adv-x="300" d="M300 206.9015625V300H159.375V206.9015625H220.8984375V188.1603515625H123.3896484375V223.2919921875H35.8224609375V188.1603515625H0V170.59453125H17.6021484375L17.5541015625 0H123.2361328125V100.480078125H264.8677734375V0H282.4458984375V135.462890625V170.59453125H300V188.1603515625H238.4765625V206.9015625zM53.4005859375 205.726171875H105.8115234375V188.1603515625H53.4005859375zM35.1322265625 135.462890625H105.6580078125V85.2486328125H35.1322265625zM35.1322265625 17.5658203125V67.6828125H105.6580078125V17.5658203125zM264.8677734375 118.0458984375H123.2361328125V135.462890625H264.8677734375zM264.8677734375 153.0287109375H114.3990234375H35.1802734375V170.59453125H264.8677734375zM176.953125 282.4341796875H282.421875V224.4673828125H176.953125z" />
    <glyph glyph-name="046-lamp"
      unicode="&#xF12E;"
      horiz-adv-x="300" d="M257.7222287109375 139.2227091796875L270.15037734375 151.6508578125L299.444204296875 122.357030859375L287.0160556640625 109.9288822265625zM270.699609375 186.0216796875H300V168.444140625H270.699609375zM223.44375 138.73125H241.02421875V109.4349609375H223.44375zM224.9185546875 256.3447265625C215.288671875 265.9734375 202.4859375 271.276171875 188.8693359375 271.276171875C184.7291015625 271.276171875 180.6392578125 270.7810546875 176.653125 269.799609375L146.4486328125 300L109.1525390625 262.7091796875L122.8201171875 249.0462890625L38.925 173.276953125C35.1896484375 175.3072265625 30.9123046875 176.4615234375 26.370703125 176.4615234375C11.8294921875 176.4615234375 0 164.633203125 0 150.094921875C0 136.12734375 10.920703125 124.667578125 24.67265625 123.788671875L44.7603515625 52.733203125H44.560546875C20.326171875 52.733203125 0.6099609375 33.019921875 0.6099609375 8.7890625000001V1e-13H147.1119140625V8.7890625000001C147.1119140625 33.019921875 127.395703125 52.733203125 103.161328125 52.733203125H100.2544921875V70.3693359375H82.6740234375V52.733203125H63.029296875L41.5869140625 128.5810546875C48.328125 133.36171875 52.7408203125 141.2203125 52.7408203125 150.094921875C52.7408203125 153.6861328125 52.0166015625 157.1109375 50.710546875 160.233984375L135.2689453125 236.6015625000001L139.3646484375 232.5076171875001C135.15234375 215.3455078125001 140.145703125 196.92421875 152.8154296875 184.2498046875L184.5638671875 152.513671875L196.6458984375 164.5939453125C202.023046875 161.3830078125 208.184765625 159.6662109375 214.6189453124999 159.6662109375C234.0064453125 159.6662109375 249.779296875 175.43671875 249.779296875 194.821875C249.779296875 201.253125 248.0625 207.4142578125 244.8515625 212.7931640625L256.6599609375 224.600390625zM128.025 17.5775390625H19.695703125C23.323828125 27.80859375 33.099609375 35.155078125 44.5599609375 35.155078125H103.1607421875C114.62109375 35.1556640625 124.396875 27.80859375 128.025 17.5775390625zM17.58046875 150.094921875C17.58046875 154.9412109375 21.523828125 158.883984375 26.370703125 158.883984375S35.1609375 154.9412109375 35.1609375 150.094921875S31.217578125 141.305859375 26.370703125 141.305859375C21.5232421875 141.305859375 17.58046875 145.2486328125 17.58046875 150.094921875zM184.5615234375 177.3708984375L165.2466796875 196.6787109375C156.0427734375 205.8861328125 153.02109375 219.7271484375 157.5498046875 231.9404296875L159.509765625 237.2255859375L134.015625 262.7103515625L146.448046875 275.141015625L171.9333984375 249.6591796875001L177.2162109375 251.61328125C180.955078125 252.9966796875001 184.8755859375 253.6974609375 188.86875 253.6974609375C197.7896484375 253.6974609375 206.17734375 250.2228515625 212.4861328125 243.915234375L231.7986328125 224.6009765625zM232.198828125 194.821875C232.198828125 185.129296875 224.312109375 177.24375 214.618359375 177.24375C213.010546875 177.24375 211.4384765625 177.462890625 209.9302734375 177.8771484375L231.56484375 199.5087890625C231.9802734375 198.001171875 232.198828125 196.4291015625 232.198828125 194.821875z" />
    <glyph glyph-name="047-library"
      unicode="&#xF12F;"
      horiz-adv-x="300" d="M262.45546875 158.3279296875V238.292578125H227.091796875V300H72.840234375V238.292578125H37.4771484375V158.3279296875H0V0H37.4771484375H46.2662109375H253.7337890625H262.45546875H300V158.3279296875zM158.755078125 282.421875H209.513671875V205.03828125H179.4287109375C171.815625 205.03828125 164.7216796875 202.7876953125 158.755078125 198.9298828125zM90.418359375 282.421875H141.176953125V198.9298828125C135.2103515625 202.78828125 128.11640625 205.0388671875 120.5033203125 205.0388671875H90.418359375zM17.578125 17.578125V140.7498046875H37.4771484375V17.578125zM164.616796875 17.578125H135.315234375V75.985546875H164.616796875zM244.87734375 17.578125H182.194921875V93.563671875H117.737109375V17.578125H55.0552734375V220.714453125H72.840234375V187.46015625H120.5033203125C131.902734375 187.46015625 141.1769531250001 178.1455078125 141.1769531250001 166.695703125H158.7550781250001C158.7550781250001 178.1455078125 168.029296875 187.46015625 179.4287109375001 187.46015625H227.0917968750001V220.714453125H244.87734375zM282.421875 17.578125H262.45546875V140.7498046875H282.421875zM200.9455078125 169.76015625C186.406640625 169.76015625 174.5783203125 157.9318359375 174.5783203125 143.39296875V111.1025390625H227.3162109375V143.39296875C227.3162109375 157.9318359375 215.4884765625 169.76015625 200.9455078125 169.76015625zM209.7380859375 128.6806640625H192.1564453125V143.39296875C192.1564453125 148.2392578125 196.09921875 152.18203125 200.9490234375 152.18203125C205.7953125 152.18203125 209.7380859375 148.2392578125 209.7380859375 143.39296875zM98.9830078125 169.76015625C84.444140625 169.76015625 72.6158203125 157.9318359375 72.6158203125 143.39296875V111.1025390625H125.3537109375V143.39296875C125.3537109375 157.9318359375 113.525390625 169.76015625 98.9830078125 169.76015625zM107.7755859375 128.6806640625H90.1939453125V143.39296875C90.1939453125 148.2392578125 94.13671875 152.18203125 98.9865234375 152.18203125C103.8328125 152.18203125 107.7755859375 148.2392578125 107.7755859375 143.39296875z" />
    <glyph glyph-name="048-diploma"
      unicode="&#xF130;"
      horiz-adv-x="300" d="M300 300H0V72.2150390625H108.984375V0L150 20.2001953125L191.015625 0V72.2150390625H300zM150 75.1458984375C137.0765625 75.1458984375 126.5625 85.6529296875 126.5625 98.56875S137.0765625 121.9916015625001 150 121.9916015625001S173.4375 111.4845703125 173.4375 98.56875S162.9234375 75.1458984375 150 75.1458984375zM150 139.5580078125C137.51015625 139.5580078125 126.3146484375 133.9435546875 118.7853515625 125.115234375H65.0806640625C62.7703125 127.4056640625 54.9017578125 135.1271484375 52.634765625 137.3742187500001V234.875390625C57.1810546875 239.415234375 60.5232421875 242.7556640625 65.0666015625 247.2990234375H234.9333984375C239.4767578125 242.7556640625 242.8189453125 239.4158203125 247.365234375 234.875390625V137.6232421875001C245.0853515625 135.3339843750001 237.2103515625 127.3822265625 234.9515625 125.1152343750001H181.2146484375C173.6853515625 133.9435546875001 162.48984375 139.5580078125001 150 139.5580078125001zM150 39.7845703125L126.5625 28.2416015625V64.959375C133.21171875 60.3146484375 141.2900390625 57.57890625 150 57.57890625S166.78828125 60.3146484375 173.4375 64.959375V28.2416015625zM282.421875 89.78203125H190.05703125C190.6787109375 92.614453125 191.015625 95.55234375 191.015625 98.56875C191.015625 101.6537109375 190.66171875 104.6560546875 190.0119140625 107.5482421875H242.2423828125L264.943359375 130.3564453125V242.1556640625L242.2189453125 264.866015625H57.7810546875L35.056640625 242.1556640625V130.0798828125L57.8173828125 107.54765625H109.9880859375C109.33828125 104.65546875 108.984375 101.653125 108.984375 98.5681640625C108.984375 95.5517578125 109.3212890625 92.6138671875 109.94296875 89.7814453125H17.578125V282.4330078125H282.421875zM88.4126953125 212.5576171875H211.587890625V194.990625H88.4126953125zM105.9908203125 177.4236328125H194.009765625V159.856640625H105.9908203125z" />
    <glyph glyph-name="049-pencil"
      unicode="&#xF131;"
      horiz-adv-x="300" d="M220.7666015625 159.84375V300H150.2935546875V159.84375H132.087890625V300H88.40859375H79.2328125H69.891796875C55.3201171875 300 43.46484375 288.1716796875 43.46484375 273.6328125V202.2861328125H61.0833984375V273.6328125C61.0833984375 278.4791015625001 65.0349609375 282.421875 69.8923828125 282.421875H79.2333984375V159.84375H29.296875V142.265625H46.9822265625C51.5736328125 142.265625 55.4326171875 138.68671875 55.7677734375 134.117578125L73.7537109375 0H226.245703125L244.1771484375 133.59140625L244.231640625 134.1169921875C244.566796875 138.6861328125 248.42578125 142.2650390625 253.0171875 142.2650390625H270.7031250000001V159.8431640625H220.7666015625001zM167.912109375 282.421875H203.1486328125V265.03125H190.0611328125V247.453125H203.1486328125V229.875H190.0611328125V212.296875H203.1486328125V194.71875H190.0611328125V177.140625H203.1486328125V159.84375H167.912109375zM114.469921875 282.421875V219.908203125H96.8513671875V282.421875zM96.8513671875 202.330078125H114.469921875V159.84375H96.8513671875zM89.1697265625 17.578125L78.162890625 99.58125H221.837109375L210.8302734375 17.578125zM226.683984375 135.6890625L224.1966796875 117.159375H75.8033203125L73.316015625 135.6890625C73.12265625 137.9794921875 72.6275390625 140.18203125 71.8828125 142.265625H228.1171875C227.3724609375 140.1814453125 226.87734375 137.9794921875 226.683984375 135.6890625z" />
    <glyph glyph-name="050-laptop"
      unicode="&#xF132;"
      horiz-adv-x="300" d="M247.0623046875 244.0189453125H52.9376953125V116.5072265625H247.062890625V244.0189453125zM229.4841796875 134.0853515625H70.5158203125V226.4408203125H229.484765625V134.0853515625zM282.421875 98.6126953125V279.4921875H17.578125V98.6126953125H0V70.3125C0 42.8501953125 22.3423828125 20.5078125 49.8046875 20.5078125H250.1953125C277.6576171875 20.5078125 300 42.8501953125 300 70.3125V98.61328125H282.421875zM35.15625 261.9140625H264.84375V98.6126953125H201.172265625L189.453515625 73.4232421875H110.546484375L98.827734375 98.6126953125H35.15625zM282.421875 70.3125C282.421875 52.5427734375 267.9650390625 38.0859375 250.1953125 38.0859375H49.8046875C32.0349609375 38.0859375 17.578125 52.5427734375 17.578125 70.3125V81.03515625H87.6181640625L99.3369140625 55.845703125H200.663671875L212.382421875 81.03515625H282.421875zM97.9013671875 206.6302734375H202.098046875V189.0521484375H97.9013671875zM115.4794921875 171.4740234375H184.519921875V153.8958984375H115.4794921875z" />
    <glyph glyph-name="051-book-1"
      unicode="&#xF133;"
      horiz-adv-x="300" d="M273.6392578125001 300L247.2791015625 245.30625V26.3373046875C247.2791015625 11.81484375 259.1044921875 0 273.6392578125001 0C288.1746093750001 0 300 11.81484375 300 26.3373046875V245.30625zM282.421875 70.6265625H264.8572265625V209.1392578125H282.421875zM273.6392578125001 259.51171875L282.421875 241.2896484375V226.7203125H264.8572265625V241.2896484375zM273.6392578125001 17.5810546875C268.7964843750001 17.5810546875 264.8572265625 21.5091796875 264.8572265625 26.337890625V53.04609375H282.421875V26.337890625C282.421875 21.5091796875 278.4820312500001 17.5810546875 273.6392578125001 17.5810546875zM0 264.7552734375V35.471484375C0 16.1109375 15.76640625 0.3603515625 35.145703125 0.3603515625H205.4572265625001V299.86640625H35.145703125C15.76640625 299.86640625 0 284.115234375 0 264.7552734375zM17.578125 264.7552734375C17.578125 274.421484375 25.458984375 282.2859375 35.145703125 282.2859375H50.3765625V70.5826171875H35.145703125C28.7513671875 70.5826171875 22.7490234375 68.8669921875 17.578125 65.8734375zM187.8791015625 17.9408203125H35.145703125C25.458984375 17.9408203125 17.578125 25.8052734375 17.578125 35.471484375S25.458984375 53.0015625 35.145703125 53.0015625H187.8791015625zM187.8791015625 70.5826171875H67.9552734375V282.2853515625H187.8791015625z" />
    <glyph glyph-name="052-ruler"
      unicode="&#xF134;"
      horiz-adv-x="300" d="M217.533984375 300L0 82.4666015625L82.4666015625 0L300 217.5333984375zM24.870703125 82.4666015625L65.5541015625 123.15L91.766015625 96.9380859375L104.20078125 109.3728515625L77.9888671875 135.584765625L95.7251953125 153.32109375L109.006640625 140.0396484375L121.44140625 152.4744140625L108.1599609375 165.755859375L125.8962890625 183.4921875L152.108203125 157.2802734375L164.54296875 169.7150390625L138.3310546875 195.926953125L156.0673828125 213.66328125L169.348828125 200.3818359375L181.7835937499999 212.8166015625L168.5021484374999 226.098046875L186.2384765624999 243.834375L212.4503906249999 217.6224609375L224.8857421875 230.0572265625001L198.673828125 256.2691406250001L217.5328124999999 275.128125L275.1287109375 217.5322265625L82.4666015624999 24.870703125zM61.6523572265625 74.6289357421875L74.085476953125 87.06205546875L87.01446328125 74.133069140625L74.5813435546875 61.6999494140625z" />
    <glyph glyph-name="053-backpack"
      unicode="&#xF135;"
      horiz-adv-x="300" d="M150.1658203125 194.53125C163.9775390625 194.53125 177.56953125 190.9212890625 189.4705078125 184.0921875L198.2197265625 199.3388671875C183.6591796875 207.6931640625 167.042578125 212.109375 150.1658203125 212.109375C133.14140625 212.109375 116.398828125 207.6205078125 101.746875 199.1279296875L110.5623046875 183.919921875C122.5388671875 190.862109375 136.233984375 194.53125 150.1658203125 194.53125zM300 116.6015625C300 140.8330078125 280.2861328125 160.546875 256.0546875 160.546875H246.6796875V168.1640625C246.6796875 188.8921875 240.120703125 208.115625 228.9720703125 223.8732421875L229.1185546875 300H176.3841796875L176.3091796875 261.2044921875C167.94140625 263.5740234375 159.1166015625 264.84375 150 264.84375C140.862890625 264.84375 132.017578125 263.56875 123.6328125 261.188671875V300H70.8984375V223.686328125C59.8294921875 207.9638671875 53.3203125 188.8107421875 53.3203125 168.1640625V160.546875H43.9453125C19.7138671875 160.546875 0 140.8330078125 0 116.6015625V35.7228515625H53.3203125V0H246.6796875V35.7228515625H300zM256.0546875 142.96875C269.625 142.96875 280.8298828125 132.66328125 282.2630859375 119.46796875H246.6796875V142.96875zM193.9283203125 282.421875H211.5064453125L211.4302734375 242.7650390625C206.0361328125 247.2146484375 200.152734375 251.0912109375 193.8744140625 254.3021484375zM106.0546875 282.421875V254.26640625C99.7669921875 251.0443359375 93.8759765625 247.1525390625 88.4765625 242.687109375V282.421875zM43.9453125 142.96875H53.3203125V119.46796875H17.7369140625C19.1701171875 132.66328125 30.375 142.96875 43.9453125 142.96875zM17.578125 53.3009765625V101.88984375H53.3203125V53.3009765625zM229.1015625 17.578125H70.8984375V168.1640625C70.8984375 211.7806640625 106.3833984375 247.265625 150 247.265625S229.1015625 211.7806640625 229.1015625 168.1640625zM246.6796875 53.3009765625V101.88984375H282.421875V53.3009765625zM88.8193359375 62.0900390625C88.8193359375 47.551171875 100.64765625 35.7228515625 115.1865234375 35.7228515625H184.8134765625C199.35234375 35.7228515625 211.1806640625 47.551171875 211.1806640625 62.0900390625V119.46796875H88.8193359375zM106.3974609375 101.88984375H193.6025390625V62.0900390625C193.6025390625 57.24375 189.659765625 53.3009765625 184.8134765625 53.3009765625H115.1865234375C110.340234375 53.3009765625 106.3974609375 57.24375 106.3974609375 62.0900390625z" />
    <glyph glyph-name="054-open-book"
      unicode="&#xF136;"
      horiz-adv-x="300" d="M0 275.09765625V56.5646484375H109.6125C127.0353515625 56.5646484375 141.2109375 42.3609375 141.2109375 24.9017578125H158.7890625C158.7890625 42.3609375 172.9640625 56.5646484375 190.3875 56.5646484375H300V275.09765625zM282.421875 123.58125H190.3875C178.3646484375 123.58125 167.3419921875 119.232421875 158.7890625 112.0318359375V257.51953125H282.421875zM141.2109375 257.51953125V112.03125C132.6580078125 119.2318359375 121.6353515625 123.5806640625 109.6125 123.5806640625H17.578125V257.51953125zM109.6125 74.143359375H17.578125V106.003125H109.6125C127.0359375 106.003125 141.2109375 91.798828125 141.2109375 74.3396484375V62.60390625C132.65859375 69.8021484375001 121.632421875 74.1433593750001 109.6125 74.1433593750001zM190.3875 74.143359375C178.367578125 74.143359375 167.34140625 69.8021484375 158.7890625 62.6044921875V74.340234375C158.7890625 91.7994140625 172.9634765625 106.0037109375 190.3875 106.0037109375H282.421875V74.1439453125H190.3875zM264.55078125 239.7966796875H176.66015625V187.0623046875H264.55078125zM246.97265625 204.6404296875H194.23828125V222.2185546875H246.97265625zM123.33984375 239.7966796875H35.44921875V187.0623046875H123.33984375zM105.76171875 204.6404296875H53.02734375V222.2185546875H105.76171875zM35.44921875 169.4841796875H123.39140625V151.9060546875H35.44921875zM176.634375 169.4841796875H264.5765625V151.9060546875H176.634375z" />
    <glyph glyph-name="055-graduation-cap"
      unicode="&#xF137;"
      horiz-adv-x="300" d="M266.015625 223.941796875L285.30703125 233.4328125L150 300L14.69296875 233.4328125L72.727734375 204.88125V140.5728515625L150 101.7568359375L227.272265625 140.5734375V204.88125L248.4375 215.2939453125V141.0878906250001H283.5591796875V158.6660156250001H266.015625zM209.694140625 151.414453125L150 121.4279296875L90.3064453125 151.414453125V196.2333984375L150 166.865625L209.694140625 196.2333984375zM150 186.455859375L54.5126953125 233.4328125L150 280.409765625L245.4873046875001 233.4328125zM239.73984375 76.34296875H60.2583984375C39.202734375 76.34296875 22.0728515625 59.2201171875 22.0728515625 38.1697265625C22.0728515625 17.1228515625 39.202734375 0 60.2583984375 0H239.73984375C260.7966796875 0 277.9271484375 17.1234375 277.9271484375 38.171484375C277.927734375 59.2189453125 260.7966796875 76.34296875 239.73984375 76.34296875zM39.650390625 38.1732421875C39.650390625 49.526953125 48.8947265625 58.76484375 60.2578125 58.76484375H207.61171875C203.7837890625 52.81875 201.551953125 45.7529296875 201.551953125 38.171484375S203.7837890625 23.52421875 207.61171875 17.578125H60.2583984375C48.8953125 17.578125 39.650390625 26.8154296875 39.650390625 38.1732421875zM239.73984375 17.578125C228.3755859375 17.578125 219.1306640625 26.8166015625 219.1306640625 38.171484375S228.376171875 58.76484375 239.73984375 58.76484375S260.3490234375 49.526953125 260.3490234375 38.171484375S251.1041015625 17.578125 239.73984375 17.578125z" />
    <glyph glyph-name="056-speech"
      unicode="&#xF138;"
      horiz-adv-x="300" d="M141.2109375 208.805859375H158.7890625V191.227734375H141.2109375zM300 98.5857421875H287.333203125V172.0236328125C287.333203125 179.15625 284.5365234375 185.839453125 279.458203125 190.8421875C274.3892578125 195.8361328125 267.6814453125 198.540234375 260.5705078125 198.4201171875H249.516796875V180.673828125H260.8341796875C263.1908203125 180.72421875 265.433203125 179.9830078125 267.121875 178.3189453125C268.8193359375 176.6466796875 269.7544921875 174.4107421875 269.7544921875 172.023046875V98.5857421875H251.949609375V134.647265625L186.547265625 169.4337890625C196.5193359375 179.034375 202.734375 192.5103515625 202.734375 207.4119140625V264.84375C202.734375 284.22890625 186.96328125 300 167.578125 300H132.421875C113.03671875 300 97.265625 284.22890625 97.265625 264.84375V207.4119140625C97.265625 192.9580078125 103.1126953125 179.8447265625 112.5638671875 170.309765625L48.0498046875 134.544140625V98.5857421875H30.244921875V172.0236328125C30.244921875 174.411328125 31.180078125 176.647265625 32.8775390625 178.31953125C34.5662109375 179.9830078125 36.781640625 180.7265625 39.165234375 180.6744140625H50.7462890625V198.420703125H39.42890625C32.3455078125 198.53671875 25.6107421875 195.8361328125 20.5412109375 190.8427734375C15.462890625 185.8400390625 12.6662109375 179.157421875 12.6662109375 172.02421875V98.5869140625H0V45.7880859375H48.0498046875V0H251.9501953125V45.7875H300zM114.84375 227.9578125C118.590234375 227.663671875 122.2283203125 227.5212890625 125.7486328125 227.5212890625C152.5130859375 227.5212890625 172.6611328125 235.4419921875 185.15625 242.361328125V207.4119140625C185.15625 188.0267578125 169.38515625 172.2556640625 150 172.2556640625S114.84375 188.0267578125 114.84375 207.4119140625zM150 154.6775390625C160.1701171875 154.6775390625 169.6751953125 157.5744140625 177.7388671875 162.582421875L177.5033203125 160.826953125C175.660546875 147.1095703125 163.8357421875 136.7654296875 149.99765625 136.7654296875C135.6955078125001 136.7654296875 123.82734375 147.5033203125 122.390625 161.7427734375L122.3091796875 162.5525390625C130.36171875 157.56328125 139.8498046875001 154.6775390625 150 154.6775390625zM132.421875 282.421875H167.578125C177.270703125 282.421875 185.15625 274.536328125 185.15625 264.84375V263.145703125C177.1716796875 257.28046875 152.635546875 242.2365234375 114.84375 245.59921875V264.84375C114.84375 274.536328125 122.729296875 282.421875 132.421875 282.421875zM65.6279296875 124.190625L107.9109375 147.631640625C114.6228515625 130.78828125 130.9951171875 119.1873046875 149.99765625 119.1873046875C168.4541015625 119.1873046875 184.71796875 130.4525390625 191.7029296875 146.783203125L234.37265625 124.0875V98.586328125H65.628515625V124.190625zM234.3720703125 17.578125H65.6279296875V45.7875H234.3720703125zM282.421875 63.365625H17.578125V81.008203125H282.421875z" />
    <glyph glyph-name="057-bookcase"
      unicode="&#xF139;"
      horiz-adv-x="300" d="M282.421875 267.7734375C282.421875 285.5431640625 267.9650390625 300 250.1953125 300H49.8046875C32.0349609375 300 17.578125 285.5431640625 17.578125 267.7734375V35.197265625H35.15625V0H87.890625V35.197265625H212.109375V0H264.84375V35.197265625H282.421875zM49.8046875 282.421875H250.1953125C258.2724609375 282.421875 264.84375 275.8505859375 264.84375 267.7734375V211.4677734375H246.99609375V264.193359375H203.05078125H194.26171875H159.10546875V211.4677734375H114.6123046875V264.193359375H61.8779296875V211.4677734375H35.15625V267.7734375C35.15625 275.8505859375 41.7275390625 282.421875 49.8046875 282.421875zM220.5439453125 123.591796875H202.9658203125V158.7392578125H220.5439453125zM185.3876953125 176.3173828125V123.591796875H140.89453125V176.3173828125H53.00390625V123.591796875H35.15625V193.8896484375H264.84375V123.591796875H238.1220703125V176.3173828125zM35.15625 52.775390625V106.013671875H141.2109375V52.775390625zM105.73828125 158.7392578125H123.31640625V123.591796875H105.73828125zM88.16015625 123.591796875H70.58203125V158.7392578125001H88.16015625zM97.0341796875 211.4677734375H79.4560546875V246.6152343750001H97.0341796875zM229.41796875 211.4677734375H211.83984375V246.6152343750001H229.41796875zM194.26171875 211.4677734375H176.68359375V246.6152343750001H194.26171875zM70.3125 17.5781250000001H52.734375V35.1972656250001H70.3125zM247.265625 17.5781250000001H229.6875V35.1972656250001H247.265625zM158.7890625 52.7753906250001V106.0136718750001H264.84375V52.7753906250001zM79.3564453125 88.1923828125H96.9345703125V70.6142578125H79.3564453125zM202.9658203125 88.20703125H220.5439453125V70.62890625H202.9658203125z" />
    <glyph glyph-name="058-book-2"
      unicode="&#xF13A;"
      horiz-adv-x="300" d="M287.5728515625 73.9177734375L300 86.347265625L249.2537109375 137.1023437500001C256.8369140625 147.746484375 261.301171875 160.7589843750001 261.301171875 174.7951171875001C261.301171875 207.7435546875 236.7005859375 235.0505859375001 204.905859375 239.3144531250001V300.0000000000001H35.1498046875C15.7681640625 300.0000000000001 0 284.22890625 0 264.8437500000001V35.1562500000001C0 15.77109375 15.7681640625 1e-13 35.1498046875 1e-13H204.905859375V110.2757812500001C217.051171875 111.9046875 228.1447265625 116.8951171875001 237.2203125 124.2791015625001zM35.1498046875 282.421875H50.3865234375V70.3125H35.1498046875C28.749609375 70.3125 22.7490234375 68.5845703125 17.574609375 65.5828125V264.84375C17.5751953125 274.536328125 25.458984375 282.421875 35.1498046875 282.421875zM187.3306640625 17.578125H35.1498046875C25.458984375 17.578125 17.574609375 25.463671875 17.574609375 35.15625S25.458984375 52.734375 35.1498046875 52.734375H187.3306640625zM67.96171875 70.3125V282.421875H187.3306640625V239.2880859375C155.626171875 234.9427734375 131.1216796875 207.6791015625 131.1216796875 174.7951171875C131.1216796875 141.910546875 155.626171875 114.6474609375 187.3306640625 110.3021484375V70.3125zM196.21171875 127.271484375C170.0115234374999 127.271484375 148.696875 148.590234375 148.696875 174.7951171875C148.696875 200.9994140625 170.0115234375 222.3181640625 196.21171875 222.3181640625S243.7265625 200.9994140625 243.7265625 174.7951171875S222.411328125 127.271484375 196.21171875 127.271484375z" />
    </font>
</defs>
</svg>
